Сообщение

Shaun T | INSANITY THE ASYLUM [Vol.2] (2012) DVDRip [EN]

Сообщение Nik » 27 авг 2017, 14:08

Shaun T | INSANITY THE ASYLUM [Vol.2] (2012) DVDRip [EN]

Автор (режиссер): Shaun T
Производство: США / Beachbody
Жанр: Фитнес

Описание:
В The Asylum Vol 1, Shaun T обучил Вас в Athletic Performance как увеличить ловкость, скорость и мощность. Теперь Shaun взял свои навыки на следующий уровень с его Insanity: в ближайшие 30 дней, Вы будете готовиться как профессиональный спортсмен и сделаете Ваше тело стройнее, быстрее и сильнее, чем когда-либо.

Продолжительность: 06:03:40
Качество видео: DVDRip
Перевод: Отсутствует
Язык озвучки: Английский

Видео: DivX 5, 720x404, ~2 001 Kbps
Аудио: AC3, 2 ch, 192 Kbps, CBR
Код:
Код: Выделить всё
Ab Shredder.avi
Format                      : AVI
Format/Info                 : Audio Video Interleave
File size                   : 337 MiB
Duration                    : 21 min
Overall bit rate            : 2 204 kb/s
Movie name                  : _Asylum_2_
Writing application         : MEncoder 5.0
Writing library             : VirtualDub build 35491/release

Video
ID                          : 0
Format                      : MPEG-4 Visual
Format profile              : Simple@L1
Format settings, BVOP       : No
Format settings, QPel       : No
Format settings, GMC        : No warppoints
Format settings, Matrix     : Default (H.263)
Codec ID                    : DX50
Codec ID/Hint               : DivX 5
Duration                    : 21 min
Bit rate                    : 2 001 kb/s
Width                       : 720 pixels
Height                      : 404 pixels
Display aspect ratio        : 16:9
Frame rate                  : 29.970 FPS
Color space                 : YUV
Chroma subsampling          : 4:2:0
Bit depth                   : 8 bits
Scan type                   : Progressive
Compression mode            : Lossy
Bits/(Pixel*Frame)          : 0.229
Stream size                 : 306 MiB (91%)
Writing library             : Lavc54.79.100

Audio
ID                          : 1
Format                      : AC-3
Format/Info                 : Audio Coding 3
Mode extension              : CM (complete main)
Format settings, Endianness : Big
Codec ID                    : 2000
Duration                    : 21 min
Bit rate mode               : Constant
Bit rate                    : 192 kb/s
Channel(s)                  : 2 channels
Channel positions           : Front: L R
Sampling rate               : 48.0 kHz
Frame rate                  : 31.250 FPS (1536 spf)
Bit depth                   : 16 bits
Compression mode            : Lossy
Stream size                 : 29.3 MiB (9%)
Alignment                   : Split accross interleaves
Interleave, duration        : 33  ms (1.00 video frame)
Interleave, preload duratio : 500  ms
Тренировки:
Agility Tutorial (25 min).
Band Tutorial (5 min).
X Trainer (50 min).
Upper Elite (60 min).
Power Legs (50 min).
Ab Shredder (21 min).
Back & 6-Pack (38 min).
Championship (56 min).
Off-Day Stretch (31 min).
Pure Contact (exclusive bonus) (23 min).

Документация:
Insanity Asylum Vol 2 Calendar (jpg).
Insanity Asylum Vol 1&2 Hybrid Calendar (jpg).
Insanity Asylum Vol 2 Playbook (jpg).
Insanity Asylum Vol 2 Get Shredded 2 ~ Nutrition Guide (jpg).

Скриншоты:


Время раздачи: с 07.00 до 22.00 (до появления первых 3-5 скачавших)

YandexBot - Лучшая благодарность поделиться ссылкой с друзьями в соц. сетях

Постеры

Соцсети

 

Статистика

Автор: Nik
Добавлен: 27 авг 2017, 14:08
Размер: 8.28 ГБ
Размер: 8 894 388 512 байт
Сидеров: 0
Личеров: 0
Скачали: 0
Здоровье: 0%
Статус:
Скорость скачивания: 0 байт/сек
Скорость раздачи: 0 байт/сек
Последний сидер: Нет
Последний личер: Нет
Приватный: Нет (DHT включён)
Здоровье и спорт Скачать торрент
Скачать торрент
[ Размер 25.58 КБ / Просмотров 5 ]

Поделиться



  • Похожие торренты
    Ответы
    Просмотры
    Последнее сообщение

Вернуться в Здоровье и спорт