Сообщение

Zuzka Light | ZCUT Power Cardio Series (2013) DVDRip [EN]

Сообщение Nik » 27 авг 2017, 14:09

Zuzka Light | ZCUT Power Cardio Series (2013) DVDRip [EN]

Автор (режиссер): Zuzka Light
Производство: США
Жанр: Фитнес

Описание:
Наконец-то Зузка представляет ZCUT серию, первый выпуск которой содержит 12 уникальных тренировок на трех дисках. С помощью этих тренировок миллионы людей смогли достичь тела своей мечты!
Каждая из 12 коротких тренировок отличается классической интенсивностью и представляет собой настоящую жиросжигающую бомбу.

Продолжительность: 03:45:46
Качество видео: DVDRip
Перевод: Отсутствует
Язык озвучки: Английский

Видео: Xvid, 720x400, ~1500 Kbps
Аудио: MP3, 2 ch, 128 Kbps, CBR
Код:
ZCUT_D1_01.avi
Format                      : AVI
Format/Info                 : Audio Video Interleave
File size                   : 160 MiB
Duration                    : 13 min
Overall bit rate            : 1 637 kb/s
Writing application         : VirtualDubMod 1.5.10.3 | www.virtualdub-fr.org || (build 2550/release)
Writing library             : VirtualDubMod build 2550/release

Video
ID                          : 0
Format                      : MPEG-4 Visual
Format profile              : Advanced Simple@L5
Format settings, BVOP       : 1
Format settings, QPel       : No
Format settings, GMC        : No warppoints
Format settings, Matrix     : Custom
Codec ID                    : XVID
Codec ID/Hint               : XviD
Duration                    : 13 min
Bit rate                    : 1 500 kb/s
Width                       : 720 pixels
Height                      : 400 pixels
Display aspect ratio        : 16:9
Frame rate                  : 23.976 (23976/1000) FPS
Color space                 : YUV
Chroma subsampling          : 4:2:0
Bit depth                   : 8 bits
Scan type                   : Progressive
Compression mode            : Lossy
Bits/(Pixel*Frame)          : 0.217
Stream size                 : 147 MiB (92%)
Writing library             : XviD 65

Audio
ID                          : 1
Format                      : MPEG Audio
Format version              : Version 1
Format profile              : Layer 3
Codec ID                    : 55
Codec ID/Hint               : MP3
Duration                    : 13 min
Bit rate mode               : Constant
Bit rate                    : 128 kb/s
Channel(s)                  : 2 channels
Sampling rate               : 48.0 kHz
Compression mode            : Lossy
Stream size                 : 12.5 MiB (8%)
Alignment                   : Aligned on interleaves
Interleave, duration        : 42  ms (1.00 video frame)
Interleave, preload duratio : 504  ms
Writing library             : LAME3.99r
Encoding settings           : -m s -V 4 -q 2 -lowpass 17 -b 128

12 тренировок + Dynamic warm up, Bonus ABS workout, Dynamic cool down
Календарь тренировок (pdf).

Скриншоты:


Спасибо за видеоматериал и описание Olu6ka

Время раздачи: с 07.00 до 22.00 (до появления первых 3-5 скачавших)

CCBot - Лучшая благодарность поделиться ссылкой с друзьями в соц. сетях

Постеры

Соцсети

 

Статистика

Автор: Nik
Добавлен: 27 авг 2017, 14:09
Размер: 2.58 ГБ
Размер: 2 772 830 026 байт
Сидеров: 0
Личеров: 1
Скачали: 0
Здоровье: ???%
Статус:
Скорость скачивания: 0 байт/сек
Скорость раздачи: 0 байт/сек
Последний сидер: 1 год 2 месяца 22 дня 12 часов 53 минуты 37 секунд назад
Последний личер: 1 год 2 месяца 22 дня 13 часов 9 минут 4 секунды назад
Приватный: Нет (DHT включён)
Здоровье и спорт Скачать торрент
Скачать торрент
[ Размер 14.69 КБ / Просмотров 3 ]

Поделиться



  • Похожие торренты
    Ответы
    Просмотры
    Последнее сообщение

Вернуться в Здоровье и спорт