Сообщение

BodyRock | THE DAILY HIIT 2 (2016) WEBRip [H.264/1080p] [EN]

Сообщение Nik » 27 авг 2017, 14:09

BodyRock | THE DAILY HIIT 2 (2016) WEBRip [H.264/1080p] [EN]

Автор (режиссер): BodyRock
Производство: США
Жанр: Фитнес

Описание:
13 Домашних тренировок по 20 минут THE DAILY HIIT от BodyRock сезон 2.

Продолжительность: 03:40:53
Качество видео: WEBRip
Перевод: Отсутствует
Язык озвучки: Английский

Видео: AVC/H.264, 1920x1080, ~1 975 Kbps
Аудио: AAC, 2 ch, 126 Kbps, CBR
Код: Выделить всё
Presented by BodyRock.mp4
Format                      : MPEG-4
Format profile              : Base Media
Codec ID                    : isom (isom/iso2/avc1/mp41)
File size                   : 271 MiB
Duration                    : 18 min 18 s
Overall bit rate            : 2 068 kb/s
Writing application         : Lavf57.2.100

Video
ID                          : 1
Format                      : AVC
Format/Info                 : Advanced Video Codec
Format profile              : High@L4
Format settings, CABAC      : Yes
Format settings, ReFrames   : 3 frames
Codec ID                    : avc1
Codec ID/Info               : Advanced Video Coding
Duration                    : 18 min 18 s
Bit rate                    : 1 935 kb/s
Width                       : 1 920 pixels
Height                      : 1 080 pixels
Display aspect ratio        : 16:9
Frame rate mode             : Variable
Frame rate                  : 23.976 (24000/1001) FPS
Minimum frame rate          : 23.974 FPS
Maximum frame rate          : 23.981 FPS
Color space                 : YUV
Chroma subsampling          : 4:2:0
Bit depth                   : 8 bits
Scan type                   : Progressive
Bits/(Pixel*Frame)          : 0.039
Stream size                 : 253 MiB (94%)
Color range                 : Limited
Color primaries             : BT.709
Transfer characteristics    : BT.709
Matrix coefficients         : BT.709

Audio
ID                          : 2
Format                      : AAC
Format/Info                 : Advanced Audio Codec
Format profile              : LC
Codec ID                    : 40
Duration                    : 18 min 18 s
Bit rate mode               : Constant
Bit rate                    : 126 kb/s
Channel(s)                  : 2 channels
Channel positions           : Front: L R
Sampling rate               : 44.1 kHz
Frame rate                  : 43.066 FPS (1024 spf)
Compression mode            : Lossy
Stream size                 : 16.4 MiB (6%)
Default                     : Yes
Alternate group             : 1
Тренировка №1 — Сексуальная спина.
Тренировка №2 — Наказания для всего тела.
Тренировка №3 — Проработка ягодиц.
Тренировка №4 — День Табата.
Тренировка №5 — Убийственная тренировка для всего тела.
Тренировка №6 — Гори, верхняя часть тела, гори.
Тренировка №7 — Сжигаем все тело.
Тренировка №8 — Качаем ноги и пресс.
Тренировка №9 — Табата для всего тела.
Тренировка №10 — Все тело горит.
Тренировка №11 — Жестокая нагрузка на верхнюю часть тела.
Тренировка №12 — Приводим в порядок все тело.
Тренировка №13 — Смерть прессу.

Источник www.bodyrock.tv
Подробное описание и тренировки на www.bodyrocktv.ru

Скриншоты:



Время раздачи: с 07.00 до 22.00 (до появления первых 3-5 скачавших)

YandexBot - Лучшая благодарность поделиться ссылкой с друзьями в соц. сетях

Постеры

Соцсети

 

Статистика

Автор: Nik
Добавлен: 27 авг 2017, 14:09
Размер: 3.36 ГБ
Размер: 3 603 755 992 байт
Сидеров: 0
Личеров: 1
Скачали: 0
Здоровье: ???%
Статус:
Скорость скачивания: 0 байт/сек
Скорость раздачи: 0 байт/сек
Последний сидер: Нет
Последний личер: 3 месяца 18 дней 17 часов 48 минут 35 секунд назад
Приватный: Нет (DHT включён)
Здоровье и спорт Скачать торрент
Скачать торрент
[ Размер 18.86 КБ / Просмотров 2 ]

Поделиться



  • Похожие торренты
    Ответы
    Просмотры
    Последнее сообщение

Вернуться в Здоровье и спорт