BodyRock | Summer Body Transformer (2016) WEBRip [H.264/1080p] [EN]

Обучающие материалы про здоровый образ жизни
Торрент Сидеров Личеров Размер
torrent_887883.torrent
0 0 3.84 ГБ
Аватара пользователя
Nik
Сообщения: 25933
Зарегистрирован: 05 ноя 2011, 22:02

BodyRock | Summer Body Transformer (2016) WEBRip [H.264/1080p] [EN]

Сообщение Nik » 27 авг 2017, 14:10

BodyRock | Summer Body Transformer (2016) WEBRip [H.264/1080p] [EN]

Автор (режиссер): BodyRock
Производство: США / BodyRock
Жанр: Фитнес

Описание:
Домашние тренировки Summer Body Transformer 30 Day Challenge от BodyRock.tv

Продолжительность: 04:31:00
Качество видео: WEBRip
Перевод: Отсутствует
Язык озвучки: Английский

Видео: AVC/H.264, 1920x1080, ~1 901 Kbps
Аудио: AAC, 2 ch, 126 Kbps, CBR

Код: Выделить всё

Day 1.mp4
Format                      : MPEG-4
Format profile              : Base Media
Codec ID                    : isom (isom/iso2/avc1/mp41)
File size                   : 225 MiB
Duration                    : 15 min 29 s
Overall bit rate            : 2 034 kb/s
Writing application         : Lavf57.2.100

Video
ID                          : 1
Format                      : AVC
Format/Info                 : Advanced Video Codec
Format profile              : High@L4
Format settings, CABAC      : Yes
Format settings, ReFrames   : 3 frames
Codec ID                    : avc1
Codec ID/Info               : Advanced Video Coding
Duration                    : 15 min 29 s
Bit rate                    : 1 901 kb/s
Width                       : 1 920 pixels
Height                      : 1 080 pixels
Display aspect ratio        : 16:9
Frame rate mode             : Constant
Frame rate                  : 30.000 FPS
Color space                 : YUV
Chroma subsampling          : 4:2:0
Bit depth                   : 8 bits
Scan type                   : Progressive
Bits/(Pixel*Frame)          : 0.031
Stream size                 : 211 MiB (93%)

Audio
ID                          : 2
Format                      : AAC
Format/Info                 : Advanced Audio Codec
Format profile              : LC
Codec ID                    : 40
Duration                    : 15 min 29 s
Bit rate mode               : Constant
Bit rate                    : 126 kb/s
Channel(s)                  : 2 channels
Channel positions           : Front: L R
Sampling rate               : 44.1 kHz
Frame rate                  : 43.066 FPS (1024 spf)
Compression mode            : Lossy
Stream size                 : 13.9 MiB (6%)
Default                     : Yes
Alternate group             : 1
Summer Body Transformer Challenge - Day 1 (15 min.)
Summer Body Transformer Challenge - Day 2 (15 min.)
Summer Body Transformer Challenge - Day 3 (12 min.)
Summer Body Transformer Challenge - Day 5 (14 min.)
Summer Body Transformer Challenge - Day 6 (12 min.)
Summer Body Transformer Challenge - Day 8 (12 min.)
Summer Body Transformer Challenge - Day 9 (15 min.)
Summer Body Transformer Challenge - Day 11 (14 min.)
Summer Body Transformer Challenge - Day 13 (14 min.)
Summer Body Transformer Challenge - Day 15 (13 min.)
Summer Body Transformer Challenge - Day 16 (13 min.)
Summer Body Transformer Challenge - Day 18 (13 min.)
Summer Body Transformer Challenge - Day 20 (16 min.)
Summer Body Transformer Challenge - Day 22 (12 min.)
Summer Body Transformer Challenge - Day 24 (16 min.)
Summer Body Transformer Challenge - Day 26 (13 min.)
Summer Body Transformer Challenge - Day 27 (14 min.)
Summer Body Transformer Challenge - Day 29 (13 min.)
Summer Body Transformer Challenge - Day 30 (15 min.)
Календарь тренировок (jpg).

Источник www.bodyrock.tv
Подробное описание и тренировки на www.bodyrocktv.ru
Скриншоты:


Время раздачи: с 07.00 до 22.00 (до появления первых 3-5 скачавших)
У вас нет необходимых прав для просмотра вложений в этом сообщении.

TOPIC_VIEWER - Лучшая благодарность поделиться ссылкой с друзьями в соц. сетях