Сообщение

BodyRock | Beginner Challenge (2016) WEBRip [H.264/1080p] [EN]

Сообщение Nik » 27 авг 2017, 14:10

BodyRock | Beginner Challenge (2016) WEBRip [H.264/1080p] [EN]

Автор (режиссер): BodyRock
Производство: США / DailyHiit
Жанр: Фитнес

Описание:
Выполнив всего несколько простых упражнений, Вы можете получить отличную тренировку для всего тела.
Весь секрет в специально разработанной программе тренировок.
На тренировку Вы потратите меньше времени, чем у Вас бы заняло добраться до тренажерного зала.
За это время Вы подтяните и создадите новую фигуру от кончиков пальцев ног до макушки.

Продолжительность: 00:28:46
Качество видео: WEBRip
Перевод: Отсутствует
Язык озвучки: Английский

Видео: AVC/H.264, 1920x1080, ~2 030 Kbps
Аудио: AAC, 2 ch, 126 Kbps, CBR
Код: Выделить всё
We Own It - HiitLite Challenge - Beginners Challenge Day 1.mp4
Format                      : MPEG-4
Format profile              : Base Media
Codec ID                    : isom (isom/iso2/avc1/mp41)
File size                   : 71.8 MiB
Duration                    : 4 min 38 s
Overall bit rate            : 2 163 kb/s
Writing application         : Lavf57.2.100

Video
ID                          : 1
Format                      : AVC
Format/Info                 : Advanced Video Codec
Format profile              : High@L4
Format settings, CABAC      : Yes
Format settings, ReFrames   : 3 frames
Codec ID                    : avc1
Codec ID/Info               : Advanced Video Coding
Duration                    : 4 min 38 s
Bit rate                    : 2 030 kb/s
Width                       : 1 920 pixels
Height                      : 1 080 pixels
Display aspect ratio        : 16:9
Frame rate mode             : Constant
Frame rate                  : 29.970 (30000/1001) FPS
Color space                 : YUV
Chroma subsampling          : 4:2:0
Bit depth                   : 8 bits
Scan type                   : Progressive
Bits/(Pixel*Frame)          : 0.033
Stream size                 : 67.3 MiB (94%)

Audio
ID                          : 2
Format                      : AAC
Format/Info                 : Advanced Audio Codec
Format profile              : LC
Codec ID                    : 40
Duration                    : 4 min 38 s
Bit rate mode               : Constant
Bit rate                    : 126 kb/s
Channel(s)                  : 2 channels
Channel positions           : Front: L R
Sampling rate               : 44.1 kHz
Frame rate                  : 43.066 FPS (1024 spf)
Compression mode            : Lossy
Stream size                 : 4.17 MiB (6%)
Default                     : Yes
Alternate group             : 1
Мы объединили приседания, отжимания и некоторые убийственные движения для пресса, чтобы Вы получили всестороннюю и эффективную тренировку для всего тела. Да, эти тренировки для новичков, но это не означает, что они дадутся Вам легко. Высокоинтенсивные интервальные тренировки требуют от Вас больших усилий и потребуют от Вас серьезной работы над каждым движением — вот почему Вы в скором времени увидите результат.

Источник www.bodyrock.tv
Подробное описание и тренировки на www.bodyrocktv.ru
We Own It - Beginners Challenge Day 1: (5 min) - без инвентаря, выполните 3 раунда!
Make Up Your Mind Workout - Beginners Challenge Day 2: (5 min) - без инвентаря, выполните 3 раунда!
Stretch - Beginners Challenge Day 3: (7 min) - без инвентаря, выполните 3 раунда!
Blurred Lines - Beginners Challenge Day 4: (5 min) - инвентарь нужен, но можно без инвентаря, выполните 3 раунда!
I Love It - Beginners Challenge Day 5: (6 min) - снаряжение эквалайзер/дип-станция , выполните 3 раунда!

Скриншоты:



Время раздачи: с 07.00 до 22.00 (до появления первых 3-5 скачавших)

CCBot - Лучшая благодарность поделиться ссылкой с друзьями в соц. сетях

Постеры

Соцсети

 

Статистика

Автор: Nik
Добавлен: 27 авг 2017, 14:10
Размер: 520.93 МБ
Размер: 546 238 072 байт
Сидеров: 0
Личеров: 0
Скачали: 0
Здоровье: 0%
Статус:
Скорость скачивания: 0 байт/сек
Скорость раздачи: 0 байт/сек
Последний сидер: Нет
Последний личер: Нет
Приватный: Нет (DHT включён)
Здоровье и спорт Скачать торрент
Скачать торрент
[ Размер 11.4 КБ / Просмотров 0 ]

Поделиться



  • Похожие торренты
    Ответы
    Просмотры
    Последнее сообщение

Вернуться в Здоровье и спорт