Сообщение

Gilad | Fé Fit Women's Workout Program (2016) WEBRip [H.264] [EN]

Сообщение Nik » 27 авг 2017, 14:11

Gilad | Fé Fit Women's Workout Program (2016) WEBRip [H.264] [EN]

Автор (режиссер): Gilad
Производство: США
Жанр: Фитнес

Описание:
28 тренировок на 8 DVD-дисках, созданных женщинами, для женщин.
Больше, чем в любой другой программе. Похудеть, повысить тонус и чувствовать себя привлекательной и сексуальной. Всего 30 минут в день. Мы понимаем, что Ваше время дорого! Мы предлагаем фитнес нон-стоп, который строит силу и выносливость без минуты впустую. Всего 3 раза в неделю! Не у всех из нас есть время, чтобы тренироваться каждый день. Вот почему мы только просим Вас провести три дня в неделю с нами. Вы выбираете дни, и мы обеспечиваем удовольствие!

Продолжительность: 15:42:03
Качество видео: WEBRip
Перевод: Отсутствует
Язык озвучки: Английский

Видео: AVC/H.264, 720x480, ~1 067 Kbps
Аудио: AAC, 2 ch, 93 Kbps, VBR
Код: Выделить всё
Barre 1.mp4
Format                      : MPEG-4
Format profile              : Base Media / Version 2
Codec ID                    : mp42 (isom/iso2/avc1/mp41)
File size                   : 269 MiB
Duration                    : 32 min 9 s
Overall bit rate mode       : Variable
Overall bit rate            : 1 168 kb/s
Encoded date                : UTC 2036-02-06 06:28:16
Tagged date                 : UTC 2036-02-06 06:28:16
Writing application         : HandBrake 0.10.2 2015060900

Video
ID                          : 1
Format                      : AVC
Format/Info                 : Advanced Video Codec
Format profile              : Main@L4
Format settings, CABAC      : Yes
Format settings, ReFrames   : 4 frames
Codec ID                    : avc1
Codec ID/Info               : Advanced Video Coding
Duration                    : 32 min 9 s
Bit rate                    : 1 067 kb/s
Width                       : 720 pixels
Height                      : 480 pixels
Display aspect ratio        : 16:9
Original display aspect rat : 16:9
Frame rate mode             : Variable
Frame rate                  : 29.970 (29970/1000) FPS
Minimum frame rate          : 14.985 FPS
Maximum frame rate          : 29.970 FPS
Standard                    : NTSC
Color space                 : YUV
Chroma subsampling          : 4:2:0
Bit depth                   : 8 bits
Scan type                   : Progressive
Bits/(Pixel*Frame)          : 0.103
Stream size                 : 245 MiB (91%)
Writing library             : x264 core 142 r2479 dd79a61
Encoding settings           : cabac=1 / ref=1 / deblock=1:0:0 / analyse=0x1:0x111 / me=hex / subme=2 / psy=1 / psy_rd=1.00:0.00 / mixed_ref=0 / me_range=16 / chroma_me=1 / trellis=0 / 8x8dct=0 / cqm=0 / deadzone=21,11 / fast_pskip=1 / chroma_qp_offset=0 / threads=6 / lookahead_threads=2 / sliced_threads=0 / nr=0 / decimate=1 / interlaced=0 / bluray_compat=0 / constrained_intra=0 / bframes=3 / b_pyramid=2 / b_adapt=1 / b_bias=0 / direct=1 / weightb=1 / open_gop=0 / weightp=1 / keyint=300 / keyint_min=30 / scenecut=40 / intra_refresh=0 / rc_lookahead=10 / rc=crf / mbtree=1 / crf=20.0 / qcomp=0.60 / qpmin=0 / qpmax=69 / qpstep=4 / vbv_maxrate=20000 / vbv_bufsize=25000 / crf_max=0.0 / nal_hrd=none / filler=0 / ip_ratio=1.40 / aq=1:1.00
Encoded date                : UTC 2036-02-06 06:28:16
Tagged date                 : UTC 2036-02-06 06:28:16
Color range                 : Limited
Color primaries             : BT.601 NTSC
Transfer characteristics    : BT.709
Matrix coefficients         : BT.601
Menus                       : 3

Audio
ID                          : 2
Format                      : AAC
Format/Info                 : Advanced Audio Codec
Format profile              : LC
Codec ID                    : 40
Duration                    : 32 min 9 s
Bit rate mode               : Variable
Bit rate                    : 93.3 kb/s
Channel(s)                  : 2 channels
Channel positions           : Front: L R
Sampling rate               : 48.0 kHz
Frame rate                  : 46.875 FPS (1024 spf)
Compression mode            : Lossy
Stream size                 : 21.5 MiB (8%)
Title                       : Stereo / Stereo
Default                     : Yes
Alternate group             : 1
Encoded date                : UTC 2036-02-06 06:28:16
Tagged date                 : UTC 2036-02-06 06:28:16
Menus                       : 3

Menu
ID                          : 3
Codec ID                    : text
Duration                    : 32 min 9 s
Language                    : English
Encoded date                : UTC 2036-02-06 06:28:16
Tagged date                 : UTC 2036-02-06 06:28:16
Bit rate mode               : CBR
Menu For                    : 1,2
00:00:00.000                : Chapter 1
00:01:49.109                : Chapter 2
00:04:18.458                : Chapter 3
00:10:26.426                : Chapter 4
00:14:05.044                : Chapter 5
00:19:54.193                : Chapter 6
00:24:14.053                : Chapter 7
00:26:49.408                : Chapter 8
00:29:58.397                : Chapter 9
Essentials:
Intro to Fe Fit (2 Minutes)
Barre (14 Minutes)
Total Body (15 Minutes)
Lower Body (15 Minutes)
Core (16 Minutes)
Stretch Flow (13 Minutes)
Upper Body (15 Minutes)
Cardio Circuit (16 Minutes)

Barre:
Barre 1-4 (~32 Minutes)

Cardio Circuit:
Cardio Circuit 1-4 (~31 Minutes)

Core:
Core 1-4 (~31 Minutes)

Lower Body:
Lower Body 1-4 (~32 Minutes)

Stretch Flow:
Stretch Flow 1-4 (~29 Minutes)

Total Body Toning:
Total Body Toning 1-4 (~31 Minutes)

Upper Body:
Upper Body 1-4 (~30 Minutes)

Documentation:
FeFit User Guide (pdf) - руководство пользователя.
Workout Calendars (pdf) - календарь тренировок.

Спасибо за видеоматериал jagdeep

Скриншоты:



Время раздачи: с 07.00 до 22.00 (до появления первых 3-5 скачавших)

CCBot - Лучшая благодарность поделиться ссылкой с друзьями в соц. сетях

Постеры

Соцсети

 

Статистика

Автор: Nik
Добавлен: 27 авг 2017, 14:11
Размер: 7.79 ГБ
Размер: 8 363 132 997 байт
Сидеров: 0
Личеров: 1
Скачали: 0
Здоровье: ???%
Статус:
Скорость скачивания: 0 байт/сек
Скорость раздачи: 0 байт/сек
Последний сидер: Нет
Последний личер: 22 дня 14 часов 18 минут 31 секунду назад
Приватный: Нет (DHT включён)
Здоровье и спорт Скачать торрент
Скачать торрент
[ Размер 42.04 КБ / Просмотров 4 ]

Поделиться



  • Похожие торренты
    Ответы
    Просмотры
    Последнее сообщение

Вернуться в Здоровье и спорт