Сообщение

Bob Harper | Ultimate Cardio Body (2011) DVDRip [EN]

Сообщение Nik » 27 авг 2017, 14:12

Bob Harper | Ultimate Cardio Body (2011) DVDRip [EN]

Автор (режиссер): Боб Харпер
Производство: США
Жанр: Фитнес

Описание:
Приготовьтесь к сверхскоростной суперкардиотренировке от Боба. Сожгите сотни калорий с быстро сменяющими друг друга упражнениями в высоком темпе, которые задействуют весь ваш мышечный корсет и повысят частоту пульса до максимума. Вы почувствуете, что все мышцы до единой напряжены, современные упражнения с утяжелителями заставят поработать вашу сердечно-сосудистую систему и мускулатуру, чтобы избавить вас от лишнего веса, килограмм за килограммом. Измените свои представления о пределе ваших возможностей, повысьте скорость ваших занятий и приведите свое тело в невероятную форму, возвращаясь к этому видео раз за разом. Занимайтесь нон-стоп! (Часовая кардиотренировка с гантелями начинается с нижней части тела, постепенно повышая пульс, далее прорабатываются руки, грудь и спина.)

Продолжительность: 01:17:04
Качество видео: DVDRip
Перевод: Отсутствует
Язык озвучки: Английский

Видео: Xvid, 720x400, ~1 509 Kbps
Аудио: MP3, 2 ch, 128 Kbps, CBR
Код:
Код: Выделить всё
Ultimate Cardio Body_01 Extreme Cardio Challenge.avi
Format                      : AVI
Format/Info                 : Audio Video Interleave
File size                   : 750 MiB
Duration                    : 1 h 3 min
Overall bit rate            : 1 646 kb/s
Movie name                  : Bob Harper Ultimate Cardio Body
Writing application         : VirtualDubMod 1.5.10.2 (build 2540/release)
Writing library             : VirtualDubMod build 2540/release
Copyright                   : Olu6ka

Video
ID                          : 0
Format                      : MPEG-4 Visual
Format profile              : Advanced Simple@L5
Format settings, BVOP       : 1
Format settings, QPel       : No
Format settings, GMC        : No warppoints
Format settings, Matrix     : Custom
Codec ID                    : XVID
Codec ID/Hint               : XviD
Duration                    : 1 h 3 min
Bit rate                    : 1 509 kb/s
Width                       : 720 pixels
Height                      : 400 pixels
Display aspect ratio        : 16:9
Frame rate                  : 23.976 (23976/1000) FPS
Color space                 : YUV
Chroma subsampling          : 4:2:0
Bit depth                   : 8 bits
Scan type                   : Progressive
Compression mode            : Lossy
Bits/(Pixel*Frame)          : 0.219
Stream size                 : 688 MiB (92%)
Writing library             : XviD 1.2.1 (UTC 2008-12-04)

Audio
ID                          : 1
Format                      : MPEG Audio
Format version              : Version 1
Format profile              : Layer 3
Mode                        : Joint stereo
Mode extension              : MS Stereo
Codec ID                    : 55
Codec ID/Hint               : MP3
Duration                    : 1 h 3 min
Bit rate mode               : Constant
Bit rate                    : 128 kb/s
Channel(s)                  : 2 channels
Sampling rate               : 48.0 kHz
Compression mode            : Lossy
Stream size                 : 58.3 MiB (8%)
Alignment                   : Aligned on interleaves
Interleave, duration        : 42  ms (1.00 video frame)
Interleave, preload duratio : 504  ms
Программа Ultimate Cardio Body поможет вам за 1 час сжечь максимальное количество калорий и сформировать подтянутое упругое тело. Вас ждут быстро сменяющие друг друга силовые упражнения, которые чередуются с кардио-нагрузкой. Вы будете выполнять упражнения с гантелями для мышц всего тела, а затем делать прыжки и ускорения для лучшего жиросжигания. Весь комплекс проходит в скоростном интервальном темпе, поэтому он подходит только физически подготовленным людям.

Итак, основная тренировка длится 60 минут и называется Extreme Cardio Challenge. Для ее выполнения вам понадобятся гантели, желательно несколько видов для разных групп мышц. Несмотря на название, кардио-нагрузка в программе довольно щадящая, а вот на силовых упражнениях придется хорошенько попотеть. Для большей эффективности Боб Харпер включил в программу и статические упражнения, при которых достигается высокое напряжение мышц при неподвижности тела.

Вторая тренировка, которая входит в программу Ultimate Cardio Body, носит название Glute Challenge. Это короткий, 10 минутный комплекс для нижней части тела: бедер и ягодиц. Если вы хотите сделать ваши ноги стройными, а попу упругой, то занимайтесь по видео Glute Challenge. Несмотря на короткую длительность, тренировка очень насыщенная и эффективная. Для ее выполнения гантели вам не понадобятся.

Для достижения качественных результатов выполнять Extreme Cardio Challenge нужно 3-4 раза в неделю.

© Goodlooker.ru - сайт о фитнесе и красоте
Читайте подробнее: http://goodlooker.ru/bob-harper-ultimate-cardio-body.html

Скриншоты:


Спасибо за описание и видеоматериал Olu6ka

Время раздачи: с 07.00 до 22.00 (до появления первых 3-5 скачавших)

YandexBot - Лучшая благодарность поделиться ссылкой с друзьями в соц. сетях

Постеры

Соцсети

 

Статистика

Автор: Nik
Добавлен: 27 авг 2017, 14:12
Размер: 892.34 МБ
Размер: 935 682 048 байт
Сидеров: 0
Личеров: 1
Скачали: 0
Здоровье: ???%
Статус:
Скорость скачивания: 0 байт/сек
Скорость раздачи: 0 байт/сек
Последний сидер: 1 месяц 17 дней 20 часов 30 минут 1 секунду назад
Последний личер: 3 месяца 11 дней 12 часов 38 минут 7 секунд назад
Приватный: Нет (DHT включён)
Здоровье и спорт Скачать торрент
Скачать торрент
[ Размер 18.34 КБ / Просмотров 2 ]

Поделиться



  • Похожие торренты
    Ответы
    Просмотры
    Последнее сообщение

Вернуться в Здоровье и спорт