Сообщение

Daily Burn | 8 эффективных тренировок от различных тренеров Daily Burn: часть 2 (2016) WEBRip [H.264/1080p] [EN]

Сообщение Nik » 27 авг 2017, 14:13

Daily Burn | 8 эффективных тренировок от различных тренеров Daily Burn: часть 2 (2016) WEBRip [H.264/1080p] [EN]

Автор (режиссер): Daily Burn
Производство: США
Жанр: Фитнес

Описание:
Если Вы не любите комплексные программы, рассчитанные на определенный срок, а предпочитаете заниматься по различным видео, то попробуйте одиночные тренировки от DailyBurn. Вы можете чередовать их между собой, а можете просто дополнить ими свою основную программу на Ваше усмотрение.

Продолжительность: 04:43:16
Качество видео: WEBRip
Перевод: Отсутствует
Язык озвучки: Английский

Видео: AVC/H.264, 1920x1080, ~4950 Kbps
Аудио: AAC, 2 ch, 192 Kbps, VBR
Код: Выделить всё
Anja Garcia – Box Burn.mp4
Format                      : MPEG-4
Format profile              : Base Media
Codec ID                    : isom (isom/iso2/avc1/mp41)
File size                   : 1.44 GiB
Duration                    : 40 min 25 s
Overall bit rate mode       : Variable
Overall bit rate            : 5 106 kb/s
Writing application         : Lavf56.25.101

Video
ID                          : 1
Format                      : AVC
Format/Info                 : Advanced Video Codec
Format profile              : High@L4
Format settings, CABAC      : Yes
Format settings, ReFrames   : 4 frames
Format settings, GOP        : M=4, N=24
Codec ID                    : avc1
Codec ID/Info               : Advanced Video Coding
Duration                    : 40 min 25 s
Bit rate                    : 4 950 kb/s
Width                       : 1 920 pixels
Height                      : 1 080 pixels
Display aspect ratio        : 16:9
Frame rate mode             : Constant
Frame rate                  : 23.976 (24000/1001) FPS
Color space                 : YUV
Chroma subsampling          : 4:2:0
Bit depth                   : 8 bits
Scan type                   : Progressive
Bits/(Pixel*Frame)          : 0.100
Stream size                 : 1.40 GiB (97%)
Writing library             : x264 core 142
Encoding settings           : cabac=1 / ref=3 / deblock=1:0:0 / analyse=0x3:0x113 / me=hex / subme=7 / psy=1 / psy_rd=1.00:0.00 / mixed_ref=1 / me_range=16 / chroma_me=1 / trellis=1 / 8x8dct=1 / cqm=0 / deadzone=21,11 / fast_pskip=1 / chroma_qp_offset=-2 / threads=6 / lookahead_threads=1 / sliced_threads=0 / nr=0 / decimate=1 / interlaced=0 / bluray_compat=0 / constrained_intra=0 / bframes=3 / b_pyramid=2 / b_adapt=1 / b_bias=0 / direct=1 / weightb=1 / open_gop=0 / weightp=2 / keyint=24 / keyint_min=2 / scenecut=40 / intra_refresh=0 / rc_lookahead=24 / rc=2pass / mbtree=1 / bitrate=4950 / ratetol=1.0 / qcomp=0.60 / qpmin=0 / qpmax=69 / qpstep=4 / cplxblur=20.0 / qblur=0.5 / ip_ratio=1.40 / aq=1:1.00

Audio
ID                          : 2
Format                      : AAC
Format/Info                 : Advanced Audio Codec
Format profile              : LC
Codec ID                    : 40
Duration                    : 40 min 25 s
Duration_LastFrame          : -3 ms
Bit rate mode               : Variable
Bit rate                    : 152 kb/s
Maximum bit rate            : 192 kb/s
Channel(s)                  : 2 channels
Channel positions           : Front: L R
Sampling rate               : 44.1 kHz
Frame rate                  : 43.066 FPS (1024 spf)
Compression mode            : Lossy
Stream size                 : 43.9 MiB (3%)
Default                     : Yes
Alternate group             : 1
1. Cody Storey – Tabata Transformation
Длительность: 38 минут
Сложность: Высокая
Калории: 448 ккал
Инвентарь: стул (опционально)
Tabata Transformation – это аэробно-силовая тренировка с уже знакомым нам тренером Коди Стори. Программа построена по принципу табаты: упражнения повторяются в 6 подходов по 20 секунд с перерывом в 10 секунд между подходами. Вас ждет 5 упражнений: выпады, отжимания, повороты корпуса в планке, усложненные скручивания, поза стола в динамике. Между упражнениями предполагается 1 минута отдыха.

2. J.R. Rogers – Strength Push
Длительность: 35 минут
Сложность: Средняя
Калории: 202 ккал
Инвентарь:гантели или эспандер
Strength Push представляет собой традиционную силовую тренировку с акцентом на мышцы верхней части тела. Вы будете подтягивать мышцы и улучшать скульптуру тела за счет многоповторности упражнений. Программа выполняется в динамичном ритме, чтобы сжечь дополнительное количество калорий.

3. Anja Garcia – Cardio Sports Drills
Длительность: 38 минут
Сложность: Средняя
Калории: 491 ккал
Инвентарь: степ-платформа (опционально)
Cardio Sports Drills – это интенсивная круговая тренировка, которая поможет Вам сжечь около 500 ккал за одно занятие. Вас ждет 4 насыщенных раунда, которые включают в себя плиометрические, аэробные и функциональные упражнения. Занятие проходит в высоком темпе, но между упражнениями есть небольшой отдых, который позволит Вам немного отдышаться.

4. Keaira LaShea – Kickin It with Keaira
Длительность: 37 минут
Сложность: Низкая
Калории: 371 ккал
Инвентарь: не нужен
Это несложная кардио-тренировка поможет Вам сжечь калории и уменьшить объемы без интенсивной ударной нагрузки. Программа построена на элементах из кикбоксинга с активной работой верхней и нижней части тела. Если Вы любите тренировки в стиле Combat от Лес Миллс, то Kickin It Вам обязательно понравится.

5. Judi Brown – Cardio Sculpt
Длительность: 32 минуты
Сложность: Средняя
Калории: 443 ккал
Инвентарь: гантели
Cardio Sculpt – это аэробно-силовая тренировка для похудения и тонуса мышц. Вы будете выполнять упражнения с гантелями для различных групп мышц. Джуди Браун предлагает комбинированные упражнения, в которых работает сразу верхняя и нижняя часть тела. Для повышения пульса и жиросжигания Вас также ждут кардио-упражнения между силовыми сегментами.

6. Anja Garcia – Box Burn
Длительность: 41 минута
Сложность: Средняя
Калории: 386 ккал
Инвентарь: гантели (опционально)
Кардио-тренировка Box Burn построена на элементах из бокса. Приготовьтесь энергично работать руками на протяжении всего занятия. Анна Гарсия подобрала для Вас разнообразные кики, удары и махи руками, чтобы взвинтить пульс, сжечь калории и уменьшить вес.

7. Keaira LaShea – Upperbody Rollercoaster
Длительность: 46 минут
Сложность: Средняя
Калории: 287 ккал
Инвентарь: гантели, степ-платформа (опционально), турник (опционально)
Upperbody Rollercoaster — это силовая тренировка с гантелями для верхней части тела. Если Вы хотите поработать над формой ваших рук, плеч, груди и спины, то эта программа от Киры Лаше Вам понравится. Вас ждут традиционные тяги, жимы, подъемы гантелей для различных групп мышц. Также тренер приготовила для Вас несколько оригинальных упражнений для дополнительной работы целевых мышц.

8. Cody Storey – Kb in 9
Длительность: 16 минут
Сложность: Средняя
Калории: 146 ккал
Инвентарь: гиря
Это короткая энергичная тренировка от Коди Стори с использованием гири. Вы будете чередовать упражнения стоя и лежа на коврике. За 15 минут Вы успеете поработать над всеми мышцами и сжечь жир. Программа включает в себя только упражнения с гирей, но проходит в высоком темпе за счет скоростных повторов движений.

GoodLooker.ru - сайт о фитнесе. Читайте подробнее: http://goodlooker.ru/daily-burn-2.html

Скриншоты:



Время раздачи: с 07.00 до 22.00 (до появления первых 3-5 скачавших)

SemrushBot - Лучшая благодарность поделиться ссылкой с друзьями в соц. сетях

Постеры

Соцсети

 

Статистика

Автор: Nik
Добавлен: 27 авг 2017, 14:13
Размер: 10.1 ГБ
Размер: 10 849 808 852 байт
Сидеров: 0
Личеров: 0
Скачали: 0
Здоровье: 0%
Статус:
Скорость скачивания: 0 байт/сек
Скорость раздачи: 0 байт/сек
Последний сидер: Нет
Последний личер: Нет
Приватный: Нет (DHT включён)
Здоровье и спорт Скачать торрент
Скачать торрент
[ Размер 26.69 КБ / Просмотров 0 ]

Поделиться



  • Похожие торренты
    Ответы
    Просмотры
    Последнее сообщение

Вернуться в Здоровье и спорт