Сообщение

Евгений Слогодский | Практический курс «Зрение, Сверхзрение, Ясновидение» (2013) DVDRip

Сообщение Nik » 27 авг 2017, 14:13

Евгений Слогодский | Практический курс «Зрение, Сверхзрение, Ясновидение» (2013) DVDRip

Автор (режиссер): Евгений Слогодский
Жанр: Здоровье, Зрение

Описание:
Авторский пошаговый практический курс Евгения Слогодского, улучшающий зрение, восприятие и внимание и дающий возможность перейти к сверхзрению и ясновидению.

Курс состоит из 7 занятий (вебинаров).
На каждом занятии вам будут даваться упражнения для самостоятельной работы, которые вы будете выполнять в промежутках (2-3 дня) между вебинарами.

Продолжительность: 13:02:23
Качество видео: DVDRip

Видео: XviD, 640х480, ~599 Kbps
Аудио: MP3, 2 ch, 128 Kbps, CBR
Код:
General
Complete name                            : C:\Torrents\Евгений Слогодский - Практический курс «Зрение, Сверхзрение, Ясновидение» (2013)\lesson_1\1 занятие. Основы хорошего зрения.avi
Format                                   : AVI
Format/Info                              : Audio Video Interleave
File size                                : 717 MiB
Duration                                 : 2h 16mn
Overall bit rate                         : 736 Kbps
Writing application                      : VirtualDubMod 1.5.10.2 (build 2540/release)
Writing library                          : VirtualDubMod build 2540/release

Video
ID                                       : 0
Format                                   : MPEG-4 Visual
Format profile                           : Advanced Simple@L5
Format settings, BVOP                    : 2
Format settings, QPel                    : Yes
Format settings, GMC                     : 3 warppoints
Format settings, Matrix                  : Default (H.263)
Codec ID                                 : XVID
Codec ID/Hint                            : XviD
Duration                                 : 2h 16mn
Bit rate                                 : 599 Kbps
Width                                    : 640 pixels
Height                                   : 480 pixels
Display aspect ratio                     : 4:3
Frame rate                               : 25.000 fps
Color space                              : YUV
Chroma subsampling                       : 4:2:0
Bit depth                                : 8 bits
Scan type                                : Progressive
Compression mode                         : Lossy
Bits/(Pixel*Frame)                       : 0.078
Stream size                              : 583 MiB (81%)
Writing library                          : XviD 1.2.1 (UTC 2008-12-04)

Audio
ID                                       : 1
Format                                   : MPEG Audio
Format version                           : Version 1
Format profile                           : Layer 3
Codec ID                                 : 55
Codec ID/Hint                            : MP3
Duration                                 : 2h 16mn
Bit rate mode                            : Constant
Bit rate                                 : 128 Kbps
Channel(s)                               : 2 channels
Sampling rate                            : 48.0 KHz
Compression mode                         : Lossy
Stream size                              : 125 MiB (17%)
Alignment                                : Aligned on interleaves
Interleave, duration                     : 40 ms (1.00 video frame)
Interleave, preload duration             : 504 ms
Writing library                          : LAME3.98r
Encoding settings                        : -m s -V 4 -q 2 -lowpass 17 -b 128

Основу занятий будет составлять практика:
- Обзор существующих методик и тренажёров, связанных с улучшением зрения и воздействием на сознание через зрительный анализатор.
- Наработка простейших навыков управления психосоматикой.
- Дыхательные практики, усиливающие работу органов зрения.
- Медитации на расслабление и улучшение работы глаз.
- Освоение зрительного аналитического навыка, за счёт простых глазодвигательных моделей, просмотра прошлого и будущего.
- Освоение простого глазодвигательного навыка от реального к воображаемому, от воображаемого к Ясновидению.
- Поэтапное развитие фокуса внимания и создание прогнозирующих моделей зрительного поведения и цветовосприятия.
- Обучение поочерёдному переключению логического зрительного анализатора к сверханализатору, образно-логическому.
- Ознакомление с древней монгольской методикой восстановления зрения «Узел счастья».
- Увеличение объёма зрительного восприятия и фиксируемых сознанием образов.
- Пошаговая наработка новых эффективных моделей зрительного поведения.

А также мы рассмотрим многочисленные вопросы связанные с темами зрения, внимания и восприятия:
- Кто и как нас учил смотреть?
- Чего достигаете с помощью зрения именно вы?
- Можно ли сформировать дальнозрение с помощью управления мышцами глаза?
- Что такое кожное зрение? Можно ли видеть ногами?
- Нужна ли постоянная тренировка для глаз, чтобы видеть хорошо?
- Можно ли использовать глаза как микроскоп?
- Как тренируют снайперов?
- и другие вопросы…

Что вы получите в результате?
- Если у вас было плохое зрение (близорукость,дальнозоркость, астигматизм, косоглазие) — оно станет улучшаться, вплоть до полного исправления.
- Также, станет улучшаться восприятие — нечто, не измеряемое в процентах и диоптриях, но очень хорошо ощущаемое, как контакт с окружающей реальностью.
- Улучшится способность к концентрации внимания, скорость реакции, скорость мыслительных процессов.
- Ваш взгляд станет «гипнотическим», т.е. приобретёт особую силу и притягательность.
- При регулярной практике, вы сможете развить качества восприятия, которые принято называть «сверхчувственными».

Я могу вам гарантировать, что:
- Вы получите ощутимый результат уже на первом занятии.
- Каждый раз, выполняя упражнения, вы будете видеть/ощущать результаты.
- К окончанию Курса, ваше зрение и восприятие улучшатся радикальным образом.
- Вы сможете улучшать их и дальше, вплоть до сверхзрения и ясновидения, если продоложите делать упражнения, которые освоите на Курсе.

1 занятие — Основы хорошего зрения.
2 занятие — Учимся релаксации.
3 занятие — Плавные движения глаз.
4 занятие — Внимание и осознание.
5 занятие — Синестезия или комплексное восприятие.
6 занятие — Включаем идеомоторику.
7 занятие — Путь к сверхчувственному восприятию.

Скриншоты:


Время раздачи: с 20:00 до 23:00 (до появления первых 3-5 скачавших)

YandexBot - Лучшая благодарность поделиться ссылкой с друзьями в соц. сетях

Постеры

Соцсети

 

Статистика

Автор: Nik
Добавлен: 27 авг 2017, 14:13
Размер: 4.04 ГБ
Размер: 4 342 170 508 байт
Сидеров: 0
Личеров: 0
Скачали: 0
Здоровье: 0%
Статус:
Скорость скачивания: 0 байт/сек
Скорость раздачи: 0 байт/сек
Последний сидер: Нет
Последний личер: Нет
Приватный: Нет (DHT включён)
Здоровье и спорт Скачать торрент
Скачать торрент
[ Размер 24.66 КБ / Просмотров 7 ]

Поделиться



Вернуться в Здоровье и спорт