Сообщение

Jillian Michaels | 10 Minute Body Transformation (2016) WEBRip [H.264/720p] [EN]

Сообщение Nik » 27 авг 2017, 14:15

Jillian Michaels | 10 Minute Body Transformation (2016) WEBRip [H.264/720p] [EN]

Автор (режиссер): Jillian Michaels
Производство: США
Жанр: Фитнес

Описание:
Соскучились по новым тренировкам Джиллиан Майклс? Предлагаем Вашему вниманию самую свежую программу известного тренера – 10 Minute Body Transformation.

Продолжительность: 01:04:48
Качество видео: WEBRip
Перевод: Отсутствует
Язык озвучки: Английский

Видео: AVC/H.264, 1280x720, ~1980 Kbps
Аудио: AAC, 2 ch, 151 Kbps, VBR
Код: Выделить всё
Warm Up. 10 Minute Body Transformation.mp4
Format                      : MPEG-4
Format profile              : Base Media
Codec ID                    : isom (isom/iso2/avc1/mp41)
File size                   : 42.0 MiB
Duration                    : 2 min 45 s
Overall bit rate mode       : Variable
Overall bit rate            : 2 135 kb/s
Writing application         : Lavf56.25.101

Video
ID                          : 1
Format                      : AVC
Format/Info                 : Advanced Video Codec
Format profile              :
Format settings, CABAC      : Yes
Format settings, ReFrames   : 4 frames
Codec ID                    : avc1
Codec ID/Info               : Advanced Video Coding
Duration                    : 2 min 44 s
Bit rate                    : 1 980 kb/s
Width                       : 1 280 pixels
Height                      : 720 pixels
Display aspect ratio        : 16:9
Frame rate mode             : Constant
Frame rate                  : 29.970 (30000/1001) FPS
Color space                 : YUV
Chroma subsampling          : 4:2:0
Bit depth                   : 8 bits
Scan type                   : Progressive
Bits/(Pixel*Frame)          : 0.072
Stream size                 : 38.9 MiB (93%)
Writing library             : x264 core 142
Encoding settings           : cabac=1 / ref=3 / deblock=1:0:0 / analyse=0x3:0x113 / me=hex / subme=7 / psy=1 / psy_rd=1.00:0.00 / mixed_ref=1 / me_range=16 / chroma_me=1 / trellis=1 / 8x8dct=1 / cqm=0 / deadzone=21,11 / fast_pskip=1 / chroma_qp_offset=-2 / threads=6 / lookahead_threads=1 / sliced_threads=0 / nr=0 / decimate=1 / interlaced=0 / bluray_compat=0 / constrained_intra=0 / bframes=3 / b_pyramid=2 / b_adapt=1 / b_bias=0 / direct=1 / weightb=1 / open_gop=0 / weightp=2 / keyint=30 / keyint_min=3 / scenecut=40 / intra_refresh=0 / rc_lookahead=30 / rc=2pass / mbtree=1 / bitrate=1980 / ratetol=1.0 / qcomp=0.60 / qpmin=0 / qpmax=69 / qpstep=4 / cplxblur=20.0 / qblur=0.5 / ip_ratio=1.40 / aq=1:1.00

Audio
ID                          : 2
Format                      : AAC
Format/Info                 : Advanced Audio Codec
Format profile              : LC
Codec ID                    : 40
Duration                    : 2 min 45 s
Duration_LastFrame          : -13 ms
Bit rate mode               : Variable
Bit rate                    : 151 kb/s
Maximum bit rate            : 192 kb/s
Channel(s)                  : 2 channels
Channel positions           : Front: L R
Sampling rate               : 44.1 kHz
Frame rate                  : 43.066 FPS (1024 spf)
Compression mode            : Lossy
Stream size                 : 2.97 MiB (7%)
Default                     : Yes
Alternate group             : 1
Тренер предлагает короткие видео, которые можно выполнять вместе, чередовать или использовать в качестве зарядки. Вы можете сами выбрать, сколько по времени Вы будете заниматься: 10 минут, 20 минут или, к примеру, все 60 минут. Эта универсальность является одним из преимуществ программы 10 Minute Body Transformation.
Все занятия длятся по 10-12 минут, разминка и заминка по 2 минуты. Общая длительность программы составляет 60 минут. Для занятий Вам понадобится только пара гантелей от 2 кг для Booty Boot Camp и коврик для Pilates Power. Остальные тренировки выполняются с весом собственного тела. Независимо от того, одну десятиминитку Вы выполняете или несколько, всегда начинайте свое занятие с разминки и заканчивайте заминкой.

Особенности программы 10 Minute Body Transformation:
Тренировки проходят в два круга: каждый круг включает в себя 6-10 различных упражнений. Джиллиан очень любит использовать принцип круговых тренировок, и в своей новой программе 10 Minute Body Transformation она не собирается изменять своим привычкам.

Комплекс подходит для разных уровней подготовки. Kickbox Blast, Pilates Power, Booty Boot Camp можно выполнять, имея уровень физической подготовки от среднего и выше. А вот Cardio Burn и особенно Calisthenics подойдет только для продвинутых.

Преимущества программы:

1. Программа идеально подходит для похудения, улучшения форм и избавления от проблемных зон. Тренировки достаточно насыщены, чтобы даже за короткое время Вы могли получить хорошую нагрузку на все тело.

2. Занятия длятся всего лишь 10 минут! Хотите – добавляйте их к другим своим программам, хотите – занимайтесь по ним вместо утренней зарядки, а хотите – тренируйтесь по целому часовому видео.

3. Комплекс включает в себя очень разнообразные виды нагрузок: силовая, пилометрическая, аэробная, функциональная, статическая, а также упражнения из кикбоксинга и пилатеса.

4. В программе предлагается много интересных упражнений, которые покажутся оригинальными даже тем, кто уже давно тренируется с Джиллиан Майклс.

5. Большинство упражнений демонстрируется в двух вариантах: простом и сложном. Для этого вместе с Джил в видео участвуют две ее помощницы.

6. Из инвентаря вам потребуется только пара гантелей и коврик.

Обязательно попробуйте новый комплекс от Джиллиан Майклс – 10 Minute Body Transformation. Даже если у Вас уже расписан фитнес-план на несколько недель вперед, Вы можете разнообразить его, включив в него короткие 10-минутные занятия. Добавьте сегодня пилатес, завтра плиометрику, а послезавтра кардио-тренировку. Уверяем Вас, результат не заставит себя ждать.

GoodLooker.ru - сайт о фитнесе. Читайте подробнее: http://goodlooker.ru/jillian-michaels-10-minute-body-transformation.html
В комплекс 10 Minute Body Transformation входят следующие тренировки:

Warm Up (разминка). Ритмичная разогревающая разминка для всего тела.
Cardio Burn (кардио-тренировка). Подборка оригинальных аэробных и плиометрических упражнений для сжигания калорий и повышения выносливости. Даже если Вы перепробовали все кардио-тренировки Джиллиан Майклс, она найдет, чем Вас удивить.
Booty Boot Camp (тренировка для ягодиц). В этом видео Вас ждут силовые упражнения с гантелями для нижней части тела: приседания, выпады, становая тяга, мост, подъемы ног на четвереньках.
Calisthenics (калистеника – тренировка с весом собственного тела). Это видео состоит из интенсивных плиометрических и силовых упражнений для развития мышечной силы и выносливости.
Kickbox Blast (кикбоксинг). Это кардио-тренировка на основе кикбоксинга. Если Вы выполняли программу Джиллиан Майклс Kickbox FastFix, то все движения Вам будут знакомы.
Pilates Power (силовой пилатес). Подборка упражнений из пилатеса для всех проблемных зон (живота, ног, ягодиц) с уклоном в силовую сторону.
Cool Down (заминка). Растяжка всех мышц тела после нагрузки.

GoodLooker.ru - сайт о фитнесе. Читайте подробнее: http://goodlooker.ru/jillian-michaels-10-minute-body-transformation.html

Скриншоты:



Время раздачи: с 07.00 до 22.00 (до появления первых 3-5 скачавших)

SemrushBot - Лучшая благодарность поделиться ссылкой с друзьями в соц. сетях

Постеры

Соцсети

 

Статистика

Автор: Nik
Добавлен: 27 авг 2017, 14:15
Размер: 990.51 МБ
Размер: 1 038 620 511 байт
Сидеров: 1
Личеров: 0
Скачали: 0
Здоровье: 100%
Раздающих: 100%
Статус:
Скорость скачивания: 0 байт/сек
Скорость раздачи: 0 байт/сек
Последний сидер: 3 месяца 14 дней 15 часов 5 минут 37 секунд назад
Последний личер: Нет
Приватный: Нет (DHT включён)
Здоровье и спорт Скачать торрент
Скачать торрент
[ Размер 20.8 КБ / Просмотров 6 ]

Поделиться



  • Похожие торренты
    Ответы
    Просмотры
    Последнее сообщение

Вернуться в Здоровье и спорт