Сообщение

Юлия Кузьмина | Современные танцы GO-GO (2011) HDRip [H.264]

Сообщение Nik » 27 авг 2017, 14:16

Юлия Кузьмина | Современные танцы GO-GO (2011) HDRip [H.264]

Автор (режиссер): Юлия Кузьмина
Производство: Galargo TV
Жанр: Танцы, GO-GO

Описание:
Вопреки всем стереотипам и представлениям, Go-Go – это не просто клубный танец. Он базируется на умении красиво себя преподносить, заряжать людей своей энергетикой и заставлять их, не отрываясь, наблюдать за твоим танцем. Благодаря занятиям Go-Go вы развиваете чувство ритма, становитесь более раскрепощенной и уверенной в себе, лучше чувствуете своё тело.

Если вы хотите чувствовать себя комфортно и уверенно на любой вечеринке и в любом клубе, если вы готовы научиться двигаться под любую музыку, обрести свой собственный неповторимый стиль, быть яркой, модной и сексуальной – не теряйте времени!

Продолжительность: 01:39:14
Качество видео: HDRip

Видео: AVC/H.264, 1280х720-1920x1080, ~2141 Kbps
Аудио: AAC, 2 ch, 152 Kbps, VBR
Код:
General
Complete name                            : C:\Torrents\Современные танцы GO-GO (Юлия Кузьмина)\GO-GO Часть 1.mp4
Format                                   : MPEG-4
Format profile                           : Base Media / Version 2
Codec ID                                 : mp42
File size                                : 195 MiB
Duration                                 : 11mn 51s
Overall bit rate mode                    : Variable
Overall bit rate                         : 2 296 Kbps
Encoded date                             : UTC 2011-11-17 13:18:32
Tagged date                              : UTC 2011-11-17 13:18:32
gsst                                     : 0
gstd                                     : 711528
gssd                                     : BADC23A2CHH1349245469214625
gshh                                     : o-o---preferred---sn-n8v7ln7k---v12---lscache7.c.youtube.com

Video
ID                                       : 1
Format                                   : AVC
Format/Info                              : Advanced Video Codec
Format profile                           :
Format settings, CABAC                   : Yes
Format settings, ReFrames                : 1 frame
Codec ID                                 : avc1
Codec ID/Info                            : Advanced Video Coding
Duration                                 : 11mn 51s
Bit rate                                 : 2 141 Kbps
Maximum bit rate                         : 7 294 Kbps
Width                                    : 1 280 pixels
Height                                   : 720 pixels
Display aspect ratio                     : 16:9
Frame rate mode                          : Constant
Frame rate                               : 25.000 fps
Color space                              : YUV
Chroma subsampling                       : 4:2:0
Bit depth                                : 8 bits
Scan type                                : Progressive
Bits/(Pixel*Frame)                       : 0.093
Stream size                              : 182 MiB (93%)
Encoded date                             : UTC 1970-01-01 00:00:00
Tagged date                              : UTC 2011-11-17 13:18:33

Audio
ID                                       : 2
Format                                   : AAC
Format/Info                              : Advanced Audio Codec
Format profile                           : LC
Codec ID                                 : 40
Duration                                 : 11mn 51s
Bit rate mode                            : Variable
Bit rate                                 : 152 Kbps
Maximum bit rate                         : 228 Kbps
Channel(s)                               : 2 channels
Channel positions                        : Front: L R
Sampling rate                            : 44.1 KHz
Compression mode                         : Lossy
Stream size                              : 12.9 MiB (7%)
Title                                    : IsoMedia File Produced by Google, 5-11-2011
Encoded date                             : UTC 2011-11-17 13:18:33
Tagged date                              : UTC 2011-11-17 13:18:33


Скриншоты:



Время раздачи: с 20:00 до 23:00 (до появления первых 3-5 скачавших)

Mail.Ru - Лучшая благодарность поделиться ссылкой с друзьями в соц. сетях

Постеры

Соцсети

 

Статистика

Автор: Nik
Добавлен: 27 авг 2017, 14:16
Размер: 2.37 ГБ
Размер: 2 541 270 504 байт
Сидеров: 2
Личеров: 1
Скачали: 0
Здоровье: 100%
Раздающих: 100%
Статус:
Скорость скачивания: 0 байт/сек
Скорость раздачи: 0 байт/сек
Последний сидер: 2 месяца 19 дней 9 часов 34 минуты 34 секунды назад
Последний личер: 2 месяца 19 дней 9 часов 34 минуты 34 секунды назад
Приватный: Нет (DHT включён)
Здоровье и спорт Скачать торрент
Скачать торрент
[ Размер 12.92 КБ / Просмотров 2 ]

Поделиться



  • Похожие торренты
    Ответы
    Просмотры
    Последнее сообщение

Вернуться в Здоровье и спорт