Сообщение

Сергей Бадюк | Шанти-практика. 60 дней тренировок, которые изменят жизнь навсегда (2017) HDRip [H.264/720p]

Сообщение Nik » 27 авг 2017, 14:16

Сергей Бадюк | Шанти-практика. 60 дней тренировок, которые изменят жизнь навсегда (2017) HDRip [H.264/720p]

Автор (режиссер): Сергей Бадюк
Жанр: Спорт, Здоровье

Описание:
«Шанти практика» – это уникальная методика от мастера спорта по рукопашному бою и тхэквондо Сергея Бадюка, в которую включен подробный разбор питания, упражнений, растяжек и духовных практик. Она научит заниматься практикой 24 часа в сутки. Осознанно и уверенно.

Продолжительность: 06:15:27
Качество видео: HDRip

Видео: AVC/H.264, 1280х720, ~1621 Kbps
Аудио: AAC, 2 ch, 192 Kbps, VBR
Код:
General
Complete name                            : C:\Torrents\Бадюк Сергей - Шанти-практика\ВВОДНЫЙ КУРС\Вводная лекция.mp4
Format                                   : MPEG-4
Format profile                           : Base Media / Version 2
Codec ID                                 : mp42
File size                                : 146 MiB
Duration                                 : 11mn 12s
Overall bit rate mode                    : Variable
Overall bit rate                         : 1 815 Kbps
Encoded date                             : UTC 2016-12-13 13:43:16
Tagged date                              : UTC 2016-12-13 13:43:16
gsst                                     : 0
gstd                                     : 672426

Video
ID                                       : 1
Format                                   : AVC
Format/Info                              : Advanced Video Codec
Format profile                           :
Format settings, CABAC                   : Yes
Format settings, ReFrames                : 1 frame
Format settings, GOP                     : M=1, N=60
Codec ID                                 : avc1
Codec ID/Info                            : Advanced Video Coding
Duration                                 : 11mn 12s
Bit rate                                 : 1 621 Kbps
Maximum bit rate                         : 3 001 Kbps
Width                                    : 1 280 pixels
Height                                   : 720 pixels
Display aspect ratio                     : 16:9
Frame rate mode                          : Variable
Frame rate                               : 24.872 fps
Minimum frame rate                       : 8.333 fps
Maximum frame rate                       : 25.000 fps
Color space                              : YUV
Chroma subsampling                       : 4:2:0
Bit depth                                : 8 bits
Scan type                                : Progressive
Bits/(Pixel*Frame)                       : 0.071
Stream size                              : 130 MiB (89%)
Tagged date                              : UTC 2016-12-13 13:43:21
Color primaries                          : BT.709
Transfer characteristics                 : BT.709
Matrix coefficients                      : BT.709

Audio
ID                                       : 2
Format                                   : AAC
Format/Info                              : Advanced Audio Codec
Format profile                           : LC
Codec ID                                 : 40
Duration                                 : 11mn 12s
Bit rate mode                            : Variable
Bit rate                                 : 192 Kbps
Maximum bit rate                         : 201 Kbps
Channel(s)                               : 2 channels
Channel positions                        : Front: L R
Sampling rate                            : 44.1 KHz
Compression mode                         : Lossy
Stream size                              : 15.4 MiB (11%)
Title                                    : IsoMedia File Produced by Google, 5-11-2011
Language                                 : English
Encoded date                             : UTC 2016-12-13 13:43:19
Tagged date                              : UTC 2016-12-13 13:43:21


Скриншоты:



Время раздачи: с 20:00 до 23:00 (до появления первых 3-5 скачавших)

YandexBot - Лучшая благодарность поделиться ссылкой с друзьями в соц. сетях

Постеры

Соцсети

 

Статистика

Автор: Nik
Добавлен: 27 авг 2017, 14:16
Размер: 5.12 ГБ
Размер: 5 494 505 171 байт
Сидеров: 1
Личеров: 0
Скачали: 0
Здоровье: 100%
Раздающих: 100%
Статус:
Скорость скачивания: 0 байт/сек
Скорость раздачи: 0 байт/сек
Последний сидер: 22 дня 6 часов 39 минут 56 секунд назад
Последний личер: Нет
Приватный: Нет (DHT включён)
Здоровье и спорт Скачать торрент
Скачать торрент
[ Размер 17.49 КБ / Просмотров 5 ]

Поделиться



Вернуться в Здоровье и спорт