Сообщение

Cold Steel Inc | The Fighting Tomahawk [Часть1] (2012) DVD5 [En]

Сообщение Nik » 27 авг 2017, 14:16

Cold Steel Inc | The Fighting Tomahawk [Часть1] (2012) DVD5 [En]

Производство: Cold Steel Inc
Жанр: Боевые исскуства

Описание:
В курсе рассказывается о истории боя на топорах (томагавках), описываются выбор топора, даются основные элементы движений, блоков и ударов с помощью топора.

Продолжительность: 02:23:17
Качество видео: DVD5
Язык: Английский

Видео: Xvid, 592х448, ~575 Kbps
Аудио: MP3, 2 ch, 106 Kbps
Код: Выделить всё
Общее
Полное имя                               : R:\Обучение  бою на тамогавке\[cold_steel]_The_Fighting_Tomhawk_1_of_2.AVI
Формат                                   : AVI
Формат/Информация                        : Audio Video Interleave
Размер файла                             : 698 Мбайт
Продолжительность                        : 2 ч. 23 м.
Режим общего битрейта                    : Переменный
Общий поток                              : 681 Кбит/сек
Программа кодирования                    : VirtualDubMod 1.5.4.1 (build 2178/release)
Библиотека кодирования                   : VirtualDubMod build 2178/release

Видео
Идентификатор                            : 0
Формат                                   : MPEG-4 Visual
Профиль формата                          : Advanced Simple@L5
Параметр BVOP формата                    : 1
Параметр QPel формата                    : Нет
Параметр GMC формата                     : Без точки перехода
Параметр матрицы формата                 : Выборочная
Идентификатор кодека                     : XVID
Идентификатор кодека/Подсказка           : XviD
Продолжительность                        : 2 ч. 23 м.
Битрейт                                  : 561 Кбит/сек
Ширина                                   : 592 пикселя
Высота                                   : 448 пикселей
Соотношение сторон                       : 4:3
Частота кадров                           : 29,970 (30000/1001) кадров/сек
Цветовое пространство                    : YUV
Субдискретизация насыщенности            : 4:2:0
Битовая глубина                          : 8 бит
Тип развёртки                            : Прогрессивная
Метод сжатия                             : С потерями
Бит/(Пиксели*Кадры)                      : 0.071
Размер потока                            : 575 Мбайт (82%)
Библиотека кодирования                   : XviD 1.2.0.dev47 (UTC 2006-11-01)

Аудио
Идентификатор                            : 1
Формат                                   : MPEG Audio
Версия формата                           : Version 1
Профиль формата                          : Layer 3
Режим                                    : Joint stereo
Расширение режима                        : MS Stereo
Идентификатор кодека                     : 55
Идентификатор кодека/Подсказка           : MP3
Продолжительность                        : 2 ч. 23 м.
Вид битрейта                             : Переменный
Битрейт                                  : 107 Кбит/сек
Номинальный битрейт                      : 128 Кбит/сек
Каналы                                   : 2 канала
Частота                                  : 48,0 КГц
Метод сжатия                             : С потерями
Размер потока                            : 109 Мбайт (16%)
Выравнивание                             : Соединение по промежуткам
Продолжительность промежутка             : 24  мс. (0,72 видеокадр)
Время предзагрузки промежутка            : 172  мс.
Библиотека кодирования                   : LAME3.97
Настройки программы                      : -m j -V 4 -q 2 -lowpass 17 --abr 128

Скриншоты:



Время раздачи: 24/7 (до появления первых 3-5 скачавших)

AhrefsBot - Лучшая благодарность поделиться ссылкой с друзьями в соц. сетях

Постеры

Соцсети

 

Статистика

Автор: Nik
Добавлен: 27 авг 2017, 14:16
Размер: 698.26 МБ
Размер: 732 178 432 байт
Сидеров: 1
Личеров: 1
Скачали: 0
Здоровье: 100%
Раздающих: 100%
Статус:
Скорость скачивания: 0 байт/сек
Скорость раздачи: 0 байт/сек
Последний сидер: 3 месяца 18 дней 12 часов 19 минут 22 секунды назад
Последний личер: 3 месяца 18 дней 12 часов 19 минут 22 секунды назад
Приватный: Нет (DHT включён)
Здоровье и спорт Скачать торрент
Скачать торрент
[ Размер 14.55 КБ / Просмотров 0 ]

Поделиться



  • Похожие торренты
    Ответы
    Просмотры
    Последнее сообщение

Вернуться в Здоровье и спорт