Сообщение

Светлана Аристова | Эффективные методы избавления от целлюлита (2013) PCRec

Сообщение Nik » 27 авг 2017, 14:18

Светлана Аристова | Эффективные методы избавления от целлюлита (2013) PCRec

Автор (режиссер): Светлана Аристова
Жанр: Здоровье
Доп. материалы: Имеются

Описание:
Стесняетесь надеть купальник или даже шорты?

Получите проверенные на практике методики избавления от надоевшей апельсиновой корки и покажите всем свои идеальные ножки!

Светлана Аристова - сертифицированный нутрициолог, остео практик, тета хиллер и тренер по восстановлению здоровья и здоровому питанию. Автор курсов по здоровому питанию, коррекции веса и других тем связанных со здоровьем.

Продолжительность: 03:49:27
Качество видео: PCRec

Видео: WMV3, 960x720, ~236kbps
Аудио: WMA, 2 ch, 48kbps
Код:
General
Complete name                  : D:\Торренты\Aristova\Видео уроки\Urok_1.mp4
Format                         : Windows Media
File size                      : 55.1 MiB
Duration                       : 26mn 9s
Overall bit rate mode          : Variable
Overall bit rate               : 294 Kbps
Maximum Overall bit rate       : 3 308 Kbps
Encoded date                   : UTC 2013-03-22 09:09:58.517

Video
ID                             : 2
Format                         : VC-1
Format profile                 : MP@HL
Codec ID                       : WMV3
Codec ID/Info                  : Windows Media Video 9
Codec ID/Hint                  : WMV3
Description of the codec       : Windows Media Video 9 - Professional
Duration                       : 26mn 9s
Bit rate mode                  : Variable
Bit rate                       : 236 Kbps
Width                          : 960 pixels
Height                         : 720 pixels
Display aspect ratio           : 4:3
Frame rate                     : 25.000 fps
Color space                    : YUV
Chroma subsampling             : 4:2:0
Bit depth                      : 8 bits
Scan type                      : Progressive
Compression mode               : Lossy
Bits/(Pixel*Frame)             : 0.014
Stream size                    : 44.2 MiB (80%)
Language                       : Russian
NumberOfFrames                 : 39252

Audio
ID                             : 1
Format                         : WMA
Format profile                 : Pro
Codec ID                       : 162
Codec ID/Info                  : Windows Media Audio
Description of the codec       : Windows Media Audio 10 Professional -  48 kbps, 44 kHz, 2 channel 16 bit (A/V) 1-pass CBR
Duration                       : 26mn 9s
Bit rate mode                  : Constant
Bit rate                       : 48.0 Kbps
Channel(s)                     : 2 channels
Sampling rate                  : 44.1 KHz
Bit depth                      : 16 bits
Stream size                    : 8.99 MiB (16%)
Language                       : Russian
NumberOfFrames                 : 8458


Скриншоты:



Время раздачи: 24/7 (круглосуточно) (до появления первых 3-5 скачавших)

YandexBot - Лучшая благодарность поделиться ссылкой с друзьями в соц. сетях

Постеры

Соцсети

 

Статистика

Автор: Nik
Добавлен: 27 авг 2017, 14:18
Размер: 444.91 МБ
Размер: 466 527 125 байт
Сидеров: 1
Личеров: 3
Скачали: 0
Здоровье: 33%
Раздающих: 100%
Статус:
Скорость скачивания: 0 байт/сек
Скорость раздачи: 0 байт/сек
Последний сидер: 7 дней 12 часов 35 минут 33 секунды назад
Последний личер: 7 дней 12 часов 35 минут 33 секунды назад
Приватный: Нет (DHT включён)
Здоровье и спорт Скачать торрент
Скачать торрент
[ Размер 19.03 КБ / Просмотров 0 ]

Поделиться



Вернуться в Здоровье и спорт