Сообщение

Mike Donavanik | Extreme Burn 14 Day Challenge (2016) WEBRip [H.264/720p-LQ] [EN]

Сообщение Nik » 27 авг 2017, 14:19

Mike Donavanik | Extreme Burn 14 Day Challenge (2016) WEBRip [H.264/720p-LQ] [EN]

Автор (режиссер): Mike Donavanik
Производство: США
Жанр: Фитнес

Описание:
Эксклюзивная программа 14-дневных тренировок. Этот комплекс по-настоящему бросает вызов Вашему телу. Независимо от Вашего уровня подготовки, Вы в полной мере ощутите результат от проведенных занятий, сделав свое тело подсушенным, рельефным, сильным и выносливым.

Продолжительность: 05:48:24
Качество видео: WEBRip
Перевод: Отсутствует
Язык озвучки: Английский

Видео: AVC/H.264, 1280x720, ~1980 Kbps
Аудио: AAC, 2 ch, 104 Kbps, VBR
Код: Выделить всё
Metabolic Сonditioning. Workout 1.mp4
Format                      : MPEG-4
Format profile              : Base Media
Codec ID                    : isom (isom/iso2/avc1/mp41)
File size                   : 704 MiB
Duration                    : 47 min 5 s
Overall bit rate mode       : Variable
Overall bit rate            : 2 092 kb/s
Writing application         : Lavf56.25.101

Video
ID                          : 1
Format                      : AVC
Format/Info                 : Advanced Video Codec
Format profile              :
Format settings, CABAC      : Yes
Format settings, ReFrames   : 4 frames
Codec ID                    : avc1
Codec ID/Info               : Advanced Video Coding
Duration                    : 47 min 4 s
Bit rate                    : 1 980 kb/s
Width                       : 1 280 pixels
Height                      : 720 pixels
Display aspect ratio        : 16:9
Frame rate mode             : Constant
Frame rate                  : 29.970 (30000/1001) FPS
Color space                 : YUV
Chroma subsampling          : 4:2:0
Bit depth                   : 8 bits
Scan type                   : Progressive
Bits/(Pixel*Frame)          : 0.072
Stream size                 : 667 MiB (95%)
Writing library             : x264 core 142
Encoding settings           : cabac=1 / ref=3 / deblock=1:0:0 / analyse=0x3:0x113 / me=hex / subme=7 / psy=1 / psy_rd=1.00:0.00 / mixed_ref=1 / me_range=16 / chroma_me=1 / trellis=1 / 8x8dct=1 / cqm=0 / deadzone=21,11 / fast_pskip=1 / chroma_qp_offset=-2 / threads=6 / lookahead_threads=1 / sliced_threads=0 / nr=0 / decimate=1 / interlaced=0 / bluray_compat=0 / constrained_intra=0 / bframes=3 / b_pyramid=2 / b_adapt=1 / b_bias=0 / direct=1 / weightb=1 / open_gop=0 / weightp=2 / keyint=30 / keyint_min=3 / scenecut=40 / intra_refresh=0 / rc_lookahead=30 / rc=2pass / mbtree=1 / bitrate=1980 / ratetol=1.0 / qcomp=0.60 / qpmin=0 / qpmax=69 / qpstep=4 / cplxblur=20.0 / qblur=0.5 / ip_ratio=1.40 / aq=1:1.00

Audio
ID                          : 2
Format                      : AAC
Format/Info                 : Advanced Audio Codec
Format profile              : LC
Codec ID                    : 40
Duration                    : 47 min 5 s
Duration_LastFrame          : -7 ms
Bit rate mode               : Variable
Bit rate                    : 104 kb/s
Maximum bit rate            : 192 kb/s
Channel(s)                  : 2 channels
Channel positions           : Front: L R
Sampling rate               : 44.1 kHz
Frame rate                  : 43.066 FPS (1024 spf)
Compression mode            : Lossy
Stream size                 : 35.0 MiB (5%)
Default                     : Yes
Alternate group             : 1
Каждая из этих программ заслуживает отдельного внимания. Даже если вы не планируете выполнять двухнедельный комплекс, вы можете выбрать эти отдельные видео для очень качественной нагрузки всего тела. Тренировки подходят для продвинутого уровня подготовки.

1. Total Body Interval Training (2011 год)
В программу Total Body Interval Training вошли две 45-минутные интервальные тренировки для всего тела. Каждое занятие включает в себя динамические силовые упражнения с гантелями и интенсивные интервалы кардио. Вас ждет очень много знакомых упражнений, но есть и оригинальные движения. Последние 10 минут посвящены упражнениям на полу для живота. Желательно иметь 2 пары гантелей.

2. Metabolic Conditioning (2012 год)
В Metabolic Conditioning также вошли две 45-минутных интервальных тренировки для всего тела. Тренировки похожи по содержанию на Total Body Interval Training, но нагрузка в них предлагается даже более интенсивная. Эти занятия понравятся всем любителям жиросжигающей плиометрики. Вас ждет 3 круга упражнений, в конце комплекс на полу для живота. Желательно иметь 2 пары гантелей.

3. Ripped Workout (2013 год)
Ripped Workout отличается от двух выше описанных комплексов. В программу вошли три разноплановые тренировки, которые будут отлично дополнять друг друга. В каждом из этих видео Вас ждет 4 блока упражнений аэробных и силовых упражнений. В концовке каждого занятия Майк Донаваник приготовил небольшой комплекс для живота на полу.
В Ripped Workout вошли три 30-минутных видео:
Workout 1. Тренировка с весом собственного тела с элементами из единоборств, плиометрики, аэробики. Наибольший акцент идет на кардио-нагрузке.
Workout 2. Тренировка с гантелями среднего веса. В этом видео уже больше силовых упражнений, но кардио-упражнения также присутствуют.
Workout 3. Тренировка с гантелями тяжелого веса, с акцентом на силовую нагрузку. Предназначена для создания сильного мышечного тела.

4. HIIT 30 (2015 год)
Это типичные HIIT-тренировки, которые включают в себя интенсивные силовые и аэробные упражнения. В этот комплекс входят две программы по 30 минут. Приготовьтесь хорошо попотеть! Вас ждет несколько раундов эффективных неповторяющихся упражнений для укрепления мышц и сжигания калорий. Для занятий нужны гантели.

После двух недель интенсивных тренировок с Майком Данаваником Вы не только преобразите свое тело, но и сможете развить выносливость и значительно улучшить свою физическую подготовку. Но даже если Вы не планируете проводить 14 дней в компании Майка, обязательно возьмите эти видео на заметку. Мы будем надеяться, они Вас не разочаруют!

GoodLooker.ru - сайт о фитнесе. Читайте подробнее: http://goodlooker.ru/mike-donavanik-extreme-burn-challenge.html
День 1: Xtreme Burn HIIT30 Workout 1 (30 минут)
День 2: Metabolic Conditioning Workout 1 (47 минут)
День 3: Total Body Interval Training Workout 1 (43 минуты)
День 4: Ripped Workout 2 (31 минута)
День 5: Xtreme Burn HIIT30 Workout 2 (30 минут)
День 6: Xtreme Burn HIIT30 Workout 1+ Workout 2 (60 минут)
День 7: Отдых
День 8: Metabolic Conditioning Workout 2 (49 минут)
День 9: Total Body Interval Training Workout 2 (46 минут)
День 10: Ripped Workout 1 (32 минуты)
День 11: Ripped Workout 3 (36 минут)
День 12: Metabolic Conditioning Workout 1+ Workout 2 (96 минут)
День 13: Total Body Interval Training Workout 1+ Workout 2 (90 минут)
День 14: Отдых
Эти тренировки были выпущены в разные года (2011-2015) и представляют собой самостоятельные программы. Но объединив их в один двухнедельный календарь, Вы получите интенсивную нагрузку и сможете достигнуть самых отличных результатов в короткий срок. В дни сдвоенных тренировок нужно выполнять видео подряд, но если у Вас нет на это возможности или физических сил, можно разделить занятия.

GoodLooker.ru - сайт о фитнесе. Читайте подробнее: http://goodlooker.ru/mike-donavanik-extreme-burn-challenge.html

Скриншоты:



Время раздачи: с 07.00 до 22.00 (до появления первых 3-5 скачавших)

CCBot - Лучшая благодарность поделиться ссылкой с друзьями в соц. сетях

Постеры

Соцсети

 

Статистика

Автор: Nik
Добавлен: 27 авг 2017, 14:19
Размер: 5.16 ГБ
Размер: 5 536 090 641 байт
Сидеров: 3
Личеров: 1
Скачали: 0
Здоровье: 100%
Раздающих: 100%
Статус:
Скорость скачивания: 0 байт/сек
Скорость раздачи: 0 байт/сек
Последний сидер: 22 дня 15 часов 51 минуту 57 секунд назад
Последний личер: 22 дня 15 часов 51 минуту 57 секунд назад
Приватный: Нет (DHT включён)
Здоровье и спорт Скачать торрент
Скачать торрент
[ Размер 14.38 КБ / Просмотров 1 ]

Поделиться



  • Похожие торренты
    Ответы
    Просмотры
    Последнее сообщение

Вернуться в Здоровье и спорт