Сообщение

Jillian Michaels | Hot Body, Healthy Mommy (2016) HDTVRip [H.264/720p-LQ] [EN]

Сообщение Nik » 27 авг 2017, 14:20

Jillian Michaels | Hot Body, Healthy Mommy (2016) HDTVRip [H.264/720p-LQ] [EN]

Автор (режиссер): Jillian Michaels
Производство: США
Жанр: Фитнес

Описание:
Предлагаем вам попробовать самый свежий комплекс занятий для всего тела: Hot Body, Healthy Mommy. Джиллиан создала его специально для молодых мам, которые хотят привести себя в форму после родов. Однако программа подойдет абсолютно для каждого, кто хочет похудеть и подтянуть тело. Качественные аэробно-силовые тренировки помогут вам сжечь жир, ускорить метаболизм, укрепить мышцы и избавиться от рыхлости и дряблости.

Продолжительность: 01:23:19
Качество видео: HDTVRip
Перевод: Отсутствует
Язык озвучки: Английский

Видео: AVC/H.264, 1280x720, ~1 980 Kbps
Аудио: AAC, 2 ch, 152 Kbps, VBR
Код: Выделить всё
Arms, Chest & Back.mp4
Format                      : MPEG-4
Format profile              : Base Media
Codec ID                    : isom (isom/iso2/avc1/mp41)
File size                   : 423 MiB
Duration                    : 27 min 38 s
Overall bit rate mode       : Variable
Overall bit rate            : 2 140 kb/s
Writing application         : Lavf56.25.101

Video
ID                          : 1
Format                      : AVC
Format/Info                 : Advanced Video Codec
Format profile              :
Format settings, CABAC      : Yes
Format settings, ReFrames   : 4 frames
Codec ID                    : avc1
Codec ID/Info               : Advanced Video Coding
Duration                    : 27 min 38 s
Bit rate                    : 1 980 kb/s
Width                       : 1 280 pixels
Height                      : 720 pixels
Display aspect ratio        : 16:9
Frame rate mode             : Constant
Frame rate                  : 29.970 (30000/1001) FPS
Color space                 : YUV
Chroma subsampling          : 4:2:0
Bit depth                   : 8 bits
Scan type                   : Progressive
Bits/(Pixel*Frame)          : 0.072
Stream size                 : 391 MiB (92%)
Writing library             : x264 core 142
Encoding settings           : cabac=1 / ref=3 / deblock=1:0:0 / analyse=0x3:0x113 / me=hex / subme=7 / psy=1 / psy_rd=1.00:0.00 / mixed_ref=1 / me_range=16 / chroma_me=1 / trellis=1 / 8x8dct=1 / cqm=0 / deadzone=21,11 / fast_pskip=1 / chroma_qp_offset=-2 / threads=6 / lookahead_threads=1 / sliced_threads=0 / nr=0 / decimate=1 / interlaced=0 / bluray_compat=0 / constrained_intra=0 / bframes=3 / b_pyramid=2 / b_adapt=1 / b_bias=0 / direct=1 / weightb=1 / open_gop=0 / weightp=2 / keyint=30 / keyint_min=3 / scenecut=40 / intra_refresh=0 / rc_lookahead=30 / rc=2pass / mbtree=1 / bitrate=1980 / ratetol=1.0 / qcomp=0.60 / qpmin=0 / qpmax=69 / qpstep=4 / cplxblur=20.0 / qblur=0.5 / ip_ratio=1.40 / aq=1:1.00

Audio
ID                          : 2
Format                      : AAC
Format/Info                 : Advanced Audio Codec
Format profile              : LC
Codec ID                    : 40
Duration                    : 27 min 38 s
Duration_LastFrame          : -7 ms
Bit rate mode               : Variable
Bit rate                    : 152 kb/s
Maximum bit rate            : 192 kb/s
Channel(s)                  : 2 channels
Channel positions           : Front: L R
Sampling rate               : 44.1 kHz
Frame rate                  : 43.066 FPS (1024 spf)
Compression mode            : Lossy
Stream size                 : 30.0 MiB (7%)
Default                     : Yes
Alternate group             : 1
В комплекс Hot Body, Healthy Mommy вошли 3 тренировки, каждая из которых длится 27 минут вместе с разминкой и заминкой:

Arms, Chest and Back: для верхней части тела. Преобразите ваши руки и грудь, подтяните плечи и спину, выполняя силовые упражнения с акцентом на верхнюю часть тела.

Buns and Thighs: для нижней части тела. Вы приведете в тонус ваши бедра, округлите ягодицы, уберете дряблость и целлюлит. Вас ждет большое количество приседаний и выпадов для стройной нижней части тела.

Core: для живота и корпусных мышц. Живот — одна из главных проблемных зон после родов, поэтому эта область требует основного внимания. Вы будете выполнять комбинированные упражнения для сжигания жировой прослойки на животе и укрепления мышц.

Тренировки разделены по частям тела, но вы не будете выполнять изолированные упражнения только на указанную область. Вас ждут комбинированные упражнения, которые включают в работу сразу несколько групп мыщц. Например, во время выполнения Arms, Chest and Back вы также будете активно тренировать живот и ноги. Помимо силовых упражнений вас ждут короткие сегменты аэробных упражнений, но не стоит беспокоиться. Кардио очень доступное и низкоударное.

Занимайтесь по каждому видео 2 раза в неделю с одним выходным (ПН, ЧТ — Arms; ВТ, ПТ — Core; СР, СБ — Buns and Thighs). Если вы хотите добавить нагрузки, то можно дополнительно включить в фитнес-план кардио-тренировки.

GoodLooker.ru - сайт о фитнесе. Читайте подробнее: http://goodlooker.ru/jillian-michaels-hot-body-healthy-mommy.html

Скриншоты:



Время раздачи: с 07.00 до 22.00 (до появления первых 3-5 скачавших)

YandexBot - Лучшая благодарность поделиться ссылкой с друзьями в соц. сетях

Постеры

Соцсети

 

Статистика

Автор: Nik
Добавлен: 27 авг 2017, 14:20
Размер: 1.25 ГБ
Размер: 1 337 516 321 байт
Сидеров: 2
Личеров: 0
Скачали: 0
Здоровье: 100%
Раздающих: 100%
Статус:
Скорость скачивания: 0 байт/сек
Скорость раздачи: 0 байт/сек
Последний сидер: 8 дней 11 часов 10 минут 13 секунд назад
Последний личер: Нет
Приватный: Нет (DHT включён)
Здоровье и спорт Скачать торрент
Скачать торрент
[ Размер 13.39 КБ / Просмотров 7 ]

Поделиться



  • Похожие торренты
    Ответы
    Просмотры
    Последнее сообщение

Вернуться в Здоровье и спорт