Сообщение

Алексей Лиханов | Хатха йога. Комплекс 2 из серии практики. Средний уровень. (2016) HDRip [H.264/1080p]

Сообщение Nik » 27 авг 2017, 14:20

Алексей Лиханов | Хатха йога. Комплекс 2 из серии практики. Средний уровень. (2016) HDRip

Автор (режиссер): Алексей Лиханов
Производство: Россия
Жанр: йога
orenyoga

Описание:
Эффективный комплекс упражнений, для развитие гибкости всего тела. С помощью предложенных упражнений вы улучшите гибкость и подвижность позвоночника, тазобедренных суставов, задней поверхности ног, избавитесь от мышечных зажимов и жесткости сухожилий, обретете гибкие и стройные ноги и руки.

Содержание: Суставная разминка, комплекс Сурья Намаскар "Приветствие Солнцу", Базовый комплекс асан.

Продолжительность: 00:59:25
Качество видео: HDRip

Видео: AVC, 1920х1080 pixels, ~3654 Kbps
Аудио: AAC, 2 ch, 192 Kbps, CBR
Код:
Код: Выделить всё
Format                      : MPEG-4
File size                   : 1.60 GiB
Duration                    : 59mn 25s

Video
ID                          : 2
Format                      : AVC
Format/Info                 : Advanced Video Codec
Format settings, ReFrames   : 5 frames
Format settings, GOP        : M=3, N=24
Codec ID/Info               : Advanced Video Coding
Duration                    : 59mn 25s
Bit rate                    : 3 654 Kbps
Width                       : 1 920 pixels
Height                      : 1 080 pixels
Display aspect ratio        : 16:9
Frame rate mode             : Constant
Frame rate                  : 29.970 (30000/1001) fps
Standard                    : NTSC
Color space                 : YUV
Chroma subsampling          : 4:2:0
Bit depth                   : 8 bits
Scan type                   : Progressive
Bits/(Pixel*Frame)          : 0.059
Stream size                 : 1.52 GiB (95%)

Audio
Format                      : AAC
Format/Info                 : Advanced Audio Codec
Duration                    : 59mn 25s
Bit rate mode               : Constant
Bit rate                    : 192 Kbps
Channel(s)                  :  channel0
Channel(s)_Original         : 2 channels
Channel positions           : Front: L R
Sampling rate               : 48.0 KHz
Frame rate                  : 46.875 fps (1024 spf)
Compression mode            : Lossy
Stream size                 : 81.6 MiB (5%)

Скриншоты:


Время раздачи: с 09:00 до 23:30

AhrefsBot - Лучшая благодарность поделиться ссылкой с друзьями в соц. сетях

Постеры

Соцсети

 

Статистика

Автор: Nik
Добавлен: 27 авг 2017, 14:20
Размер: 1.6 ГБ
Размер: 1 716 038 571 байт
Сидеров: 5
Личеров: 2
Скачали: 0
Здоровье: 100%
Раздающих: 100%
Статус:
Скорость скачивания: 0 байт/сек
Скорость раздачи: 0 байт/сек
Последний сидер: 3 дня 10 часов 51 минуту 49 секунд назад
Последний личер: 3 дня 10 часов 51 минуту 49 секунд назад
Приватный: Нет (DHT включён)
Здоровье и спорт Скачать торрент
Скачать торрент
[ Размер 17.06 КБ / Просмотров 3 ]

Поделиться



Вернуться в Здоровье и спорт