Сообщение

Ashley Borden | 900 Calorie Burn (2015) DVDRip [H.264] [EN]

Сообщение Nik » 27 авг 2017, 14:20

Ashley Borden | 900 Calorie Burn (2015) DVDRip [H.264] [EN]

Автор (режиссер): Ashley Borden
Производство: США
Жанр: Фитнес

Описание:
Взрывные тренировки от Эшли Борден помогут вам привести себя в отличную форму и улучшить качество тела в короткий срок. Эшли является известным американским профессиональным фитнес-тренером, которая успела поработать со звездами такого масштаба как Райан Гослинг и Кристина Агилера, а также целым рядом спортсменов мирового класса.
Эшли Борден предлагает вам 4 интенсивных тренировки: три видео предполагают работу над целевыми зонами, а одно видео – работу над всем телом целиком. Они длятся 25 минут и образуют прекрасную комплексную программу для всего тела.

Продолжительность: 01:45:25
Качество видео: DVDRip
Язык: Английский
Перевод: Отсутствует

Видео: AVC/H.264, 640x360, ~402 Kbps
Аудио: AAC, 2 ch, 96 Kbps, VBR
Код: Выделить всё
Hard Core HIIT.mp4
Format                      : MPEG-4
Format profile              : Base Media / Version 2
Codec ID                    : mp42 (isom/iso2/avc1/mp41)
File size                   : 86.7 MiB
Duration                    : 23 min 58 s
Overall bit rate mode       : Variable
Overall bit rate            : 506 kb/s
Writing application         : HandBrake 0.10.0 2014112200

Video
ID                          : 1
Format                      : AVC
Format/Info                 : Advanced Video Codec
Format profile              : Main@L4
Format settings, CABAC      : Yes
Format settings, ReFrames   : 4 frames
Codec ID                    : avc1
Codec ID/Info               : Advanced Video Coding
Duration                    : 23 min 58 s
Bit rate                    : 402 kb/s
Width                       : 640 pixels
Height                      : 360 pixels
Display aspect ratio        : 16:9
Frame rate mode             : Variable
Frame rate                  : 23.976 (23976/1000) FPS
Minimum frame rate          : 11.987 FPS
Maximum frame rate          : 29.970 FPS
Color space                 : YUV
Chroma subsampling          : 4:2:0
Bit depth                   : 8 bits
Scan type                   : Progressive
Bits/(Pixel*Frame)          : 0.073
Stream size                 : 68.9 MiB (79%)
Writing library             : x264 core 142 r2479 dd79a61
Encoding settings           : cabac=1 / ref=1 / deblock=1:0:0 / analyse=0x1:0x111 / me=hex / subme=2 / psy=1 / psy_rd=1.00:0.00 / mixed_ref=0 / me_range=16 / chroma_me=1 / trellis=0 / 8x8dct=0 / cqm=0 / deadzone=21,11 / fast_pskip=1 / chroma_qp_offset=0 / threads=6 / lookahead_threads=2 / sliced_threads=0 / nr=0 / decimate=1 / interlaced=0 / bluray_compat=0 / constrained_intra=0 / bframes=3 / b_pyramid=2 / b_adapt=1 / b_bias=0 / direct=1 / weightb=1 / open_gop=0 / weightp=1 / keyint=240 / keyint_min=24 / scenecut=40 / intra_refresh=0 / rc_lookahead=10 / rc=crf / mbtree=1 / crf=20.0 / qcomp=0.60 / qpmin=0 / qpmax=69 / qpstep=4 / vbv_maxrate=20000 / vbv_bufsize=25000 / crf_max=0.0 / nal_hrd=none / filler=0 / ip_ratio=1.40 / aq=1:1.00
Color range                 : Limited
Color primaries             : BT.601 NTSC
Transfer characteristics    : BT.709
Matrix coefficients         : BT.601
Menus                       : 3

Audio
ID                          : 2
Format                      : AAC
Format/Info                 : Advanced Audio Codec
Format profile              : LC
Codec ID                    : 40
Duration                    : 23 min 57 s
Bit rate mode               : Variable
Bit rate                    : 96.0 kb/s
Channel(s)                  : 2 channels
Channel positions           : Front: L R
Sampling rate               : 48.0 kHz
Frame rate                  : 46.875 FPS (1024 spf)
Compression mode            : Lossy
Stream size                 : 16.5 MiB (19%)
Title                       : Stereo / Stereo
Default                     : Yes
Alternate group             : 1
Menus                       : 3

Menu
ID                          : 3
Codec ID                    : text
Duration                    : 23 min 58 s
Language                    : English
Bit rate mode               : CBR
Menu For                    : 1,2
00:00:00.000                : Chapter 1
00:03:58.939                : Chapter 2
00:08:55.235                : Chapter 3
00:14:57.814                : Chapter 4
00:20:17.249                : Chapter 5
00:23:27.823                : Chapter 6
В комплекс 900 Calorie Burn вошли:

Upper Body HIIT: интервальная тренировка с акцентом на верхнюю часть без гантелей; в качестве упражнений будут планки, супермен, отжимания и прыжки.
Lower Body HIIT: программа, которая ориентированы на мышцы нижней части тела:боковые выпады, приседания, планки; упражнения выполняются с гантелями.
Hard Core HIIT: с этим видео вы комплексно проработаете корсетные мышцы, выполняя выпады, планки, подъемы туловища, приседания и несложные кардио-упражнения без инвентаря.
Head-to-Toe HIIT: силовая тренировка для всего тела с гантелями, которая проходит в динамичном темпе.

GoodLooker.ru - сайт о фитнесе. Читайте подробнее: http://goodlooker.ru/900-calorie-burn-and-hi-intensity.html

Скриншоты:



Время раздачи: с 07.00 до 22.00 (до появления первых 3-5 скачавших)

CCBot - Лучшая благодарность поделиться ссылкой с друзьями в соц. сетях

Постеры

Соцсети

 

Статистика

Автор: Nik
Добавлен: 27 авг 2017, 14:20
Размер: 386.54 МБ
Размер: 405 318 948 байт
Сидеров: 1
Личеров: 0
Скачали: 0
Здоровье: 100%
Раздающих: 100%
Статус:
Скорость скачивания: 0 байт/сек
Скорость раздачи: 0 байт/сек
Последний сидер: 4 дня 13 часов 5 минут 26 секунд назад
Последний личер: Нет
Приватный: Нет (DHT включён)
Здоровье и спорт Скачать торрент
Скачать торрент
[ Размер 16.07 КБ / Просмотров 0 ]

Поделиться



  • Похожие торренты
    Ответы
    Просмотры
    Последнее сообщение

Вернуться в Здоровье и спорт