Сообщение

Leandro Carvalho | Brazil Butt Lift Carnivale (2016) HDTVRip [H.264/720p-LQ] [EN]

Сообщение Nik » 27 авг 2017, 14:20

Leandro Carvalho | Brazil Butt Lift Carnivale (2016) HDTVRip [H.264/720p-LQ] [EN]

Автор (режиссер): Leandro Carvalho
Производство: США
Жанр: Танцевальные тренировки

Описание:
Хотите качественно улучшить свое тело и обрести красивые подтянутые формы за 30 дней? Тогда программа от Леандро Карвальо создана специально для вас! Новый выпуск «Бразильских попок» поможет вам построить фигуру своей мечты.

Продолжительность: 02:29:43
Качество видео: HDTVRip
Язык: Английский
Перевод: Отсутствует

Видео: AVC/H.264, 1280x720, ~1980 Kbps
Аудио: AAC, 2 ch, 152 Kbps, VBR
Код: Выделить всё
1. Get sweaty. Brazil Butt Lift Carnivale.mp4
Format                      : MPEG-4
Format profile              : Base Media
Codec ID                    : isom (isom/iso2/avc1/mp41)
File size                   : 478 MiB
Duration                    : 31 min 12 s
Overall bit rate mode       : Variable
Overall bit rate            : 2 141 kb/s
Writing application         : Lavf55.48.100

Video
ID                          : 1
Format                      : AVC
Format/Info                 : Advanced Video Codec
Format profile              :
Format settings, CABAC      : Yes
Format settings, RefFrames  : 4 frames
Codec ID                    : avc1
Codec ID/Info               : Advanced Video Coding
Duration                    : 31 min 12 s
Bit rate                    : 1 980 kb/s
Width                       : 1 280 pixels
Height                      : 720 pixels
Display aspect ratio        : 16:9
Frame rate mode             : Constant
Frame rate                  : 30.000 FPS
Color space                 : YUV
Chroma subsampling          : 4:2:0
Bit depth                   : 8 bits
Scan type                   : Progressive
Bits/(Pixel*Frame)          : 0.072
Stream size                 : 442 MiB (93%)
Writing library             : x264 core 142
Encoding settings           : cabac=1 / ref=3 / deblock=1:0:0 / analyse=0x3:0x113 / me=hex / subme=7 / psy=1 / psy_rd=1.00:0.00 / mixed_ref=1 / me_range=16 / chroma_me=1 / trellis=1 / 8x8dct=1 / cqm=0 / deadzone=21,11 / fast_pskip=1 / chroma_qp_offset=-2 / threads=6 / lookahead_threads=1 / sliced_threads=0 / nr=0 / decimate=1 / interlaced=0 / bluray_compat=0 / constrained_intra=0 / bframes=3 / b_pyramid=2 / b_adapt=1 / b_bias=0 / direct=1 / weightb=1 / open_gop=0 / weightp=2 / keyint=30 / keyint_min=3 / scenecut=40 / intra_refresh=0 / rc_lookahead=30 / rc=2pass / mbtree=1 / bitrate=1980 / ratetol=1.0 / qcomp=0.60 / qpmin=0 / qpmax=69 / qpstep=4 / cplxblur=20.0 / qblur=0.5 / ip_ratio=1.40 / aq=1:1.00

Audio
ID                          : 2
Format                      : AAC
Format/Info                 : Advanced Audio Codec
Format profile              : LC
Codec ID                    : 40
Duration                    : 31 min 12 s
Bit rate mode               : Variable
Bit rate                    : 152 kb/s
Maximum bit rate            : 192 kb/s
Channel(s)                  : 2 channels
Channel positions           : Front: L R
Sampling rate               : 44.1 kHz
Frame rate                  : 43.066 FPS (1024 SPF)
Compression mode            : Lossy
Stream size                 : 33.9 MiB (7%)
Default                     : Yes
Alternate group             : 1
Программа Brazil Butt Lift Carnivale разработана Леандро Карвальо — известным голливудским тренером супермоделей. С его помощью вы сможете добиться подтянутого живота, стройных бедер и красивых ягодиц. Занимаясь по этому комплексу, вы не будете чувствовать рутинную тренировочную работу: программа «Бразильских попок» проходит в позитивной атмосфере под зажигательную музыку. Леандро ведет занятия в своей личной фитнес-студии Нью-Йорка с командой обворожительных спортивных девушек.

GoodLooker.ru - сайт о фитнесе. Читайте подробнее: http://goodlooker.ru/brazil-butt-lift-carnivale.html
Тренировки из Brazil Butt Lift Carnivale длятся всего лишь 30 минут и им очень легко следовать. В комплекс вошли следующие видео:

Get Sweaty: это ритмичное танцевальное занятие, целью которого является сжигание калорий и избавление от лишнего веса.
It’s Booty Time: программа для сжигания калорий и тонуса мышц нижней части тела. Вы приподнимите ягодицы и получите красивые стройные ноги.
Tank Top Time: еще одна жиросжигающая тренировка, но с акцентом на верхнюю часть тела. Вас ждут кардио-упражнения и упражнения для плеч, рук и груди.
Sexy & Sculpted: тренировка проходит в динамичном темпе. Вы будете выполнять комбинационные упражнения для укрепления мышц всего тела целиком.
15-Minute Abs (15 минут): подборка упражнений для брюшных мышц, которые выполняются на коврике.

Kalendar Brazil Butt Lift Carnivale - календарь тренировок.

GoodLooker.ru - сайт о фитнесе. Читайте подробнее: http://goodlooker.ru/brazil-butt-lift-carnivale.html

Скриншоты:



Время раздачи: с 18.00 до 22.00 (до появления первых 3-5 скачавших)

SemrushBot - Лучшая благодарность поделиться ссылкой с друзьями в соц. сетях

Постеры

Соцсети

 

Статистика

Автор: Nik
Добавлен: 27 авг 2017, 14:20
Размер: 2.24 ГБ
Размер: 2 404 388 664 байт
Сидеров: 3
Личеров: 0
Скачали: 1
Здоровье: 100%
Раздающих: 100%
Статус:
Скорость скачивания: 0 байт/сек
Скорость раздачи: 0 байт/сек
Последний сидер: 17 дней 4 часа 27 минут 11 секунд назад
Последний личер: 7 месяцев 25 дней 9 часов 20 минут 45 секунд назад
Приватный: Нет (DHT включён)
Здоровье и спорт Скачать торрент
Скачать торрент
[ Размер 12.53 КБ / Просмотров 1 ]

Поделиться



  • Похожие торренты
    Ответы
    Просмотры
    Последнее сообщение

Вернуться в Здоровье и спорт