Сообщение

Shaun T | СIZE - The Next Level (2016) HDTVRip [H.264/720p-LQ] [EN]

Сообщение Nik » 27 авг 2017, 14:21

Shaun T | СIZE - The Next Level (2016) HDTVRip [H.264/720p-LQ] [EN]

Автор (режиссер): Shaun T
Производство: США / BeachBody
Жанр: Танцевальные тренировки

Описание:
Продолжение тренировок CIZE - End of Exercize.
Танцуйте и худейте с несложными танцевальными тренировками от Шона.

Продолжительность: 03:33:39
Качество видео: HDTVRip
Перевод: Отсутствует
Язык озвучки: Английский

Видео: AVC/H.264, 1280x720, ~1 980 Kbps
Аудио: AAC, 2 ch, 152 Kbps, VBR
Код: Выделить всё
1. Work Your Body. Сizе The Next Level.mp4
Format                      : MPEG-4
Format profile              : Base Media
Codec ID                    : isom (isom/iso2/avc1/mp41)
File size                   : 472 MiB
Duration                    : 30 min 50 s
Overall bit rate mode       : Variable
Overall bit rate            : 2 141 kb/s
Writing application         : Lavf56.25.101

Video
ID                          : 1
Format                      : AVC
Format/Info                 : Advanced Video Codec
Format profile              :
Format settings, CABAC      : Yes
Format settings, ReFrames   : 4 frames
Codec ID                    : avc1
Codec ID/Info               : Advanced Video Coding
Duration                    : 30 min 50 s
Bit rate                    : 1 980 kb/s
Width                       : 1 280 pixels
Height                      : 720 pixels
Display aspect ratio        : 16:9
Frame rate mode             : Constant
Frame rate                  : 29.970 (30000/1001) FPS
Color space                 : YUV
Chroma subsampling          : 4:2:0
Bit depth                   : 8 bits
Scan type                   : Progressive
Bits/(Pixel*Frame)          : 0.072
Stream size                 : 437 MiB (93%)
Writing library             : x264 core 142
Encoding settings           : cabac=1 / ref=3 / deblock=1:0:0 / analyse=0x3:0x113 / me=hex / subme=7 / psy=1 / psy_rd=1.00:0.00 / mixed_ref=1 / me_range=16 / chroma_me=1 / trellis=1 / 8x8dct=1 / cqm=0 / deadzone=21,11 / fast_pskip=1 / chroma_qp_offset=-2 / threads=24 / lookahead_threads=4 / sliced_threads=0 / nr=0 / decimate=1 / interlaced=0 / bluray_compat=0 / constrained_intra=0 / bframes=3 / b_pyramid=2 / b_adapt=1 / b_bias=0 / direct=1 / weightb=1 / open_gop=0 / weightp=2 / keyint=30 / keyint_min=3 / scenecut=40 / intra_refresh=0 / rc_lookahead=30 / rc=2pass / mbtree=1 / bitrate=1980 / ratetol=1.0 / qcomp=0.60 / qpmin=0 / qpmax=69 / qpstep=4 / cplxblur=20.0 / qblur=0.5 / ip_ratio=1.40 / aq=1:1.00

Audio
ID                          : 2
Format                      : AAC
Format/Info                 : Advanced Audio Codec
Format profile              : LC
Codec ID                    : 40
Duration                    : 30 min 50 s
Duration_LastFrame          : -6 ms
Bit rate mode               : Variable
Bit rate                    : 152 kb/s
Maximum bit rate            : 192 kb/s
Channel(s)                  : 2 channels
Channel positions           : Front: L R
Sampling rate               : 44.1 kHz
Frame rate                  : 43.066 FPS (1024 spf)
Compression mode            : Lossy
Stream size                 : 33.5 MiB (7%)
Default                     : Yes
Alternate group             : 1
6 видео из CIZE - The Next Level:

Work Your Body (30 минут)
Own Every Move (32 минуты)
Whilin Out (30 минут)
Sync It Up (36 минут)
Turn Up the Mix (40 минут)
Speed It Up (43 минуты)

30 Day Hybrid Calendar (jpg) - 30-дневный совмещенный календарь тренировок cize и cize next level
The Next Level Calendar (jpg) - календарь тренировок

Скриншоты:



Время раздачи: с 07.00 до 22.00 (до появления первых 3-5 скачавших)

CCBot - Лучшая благодарность поделиться ссылкой с друзьями в соц. сетях

Постеры

Соцсети

 

Статистика

Автор: Nik
Добавлен: 27 авг 2017, 14:21
Размер: 3.2 ГБ
Размер: 3 430 670 426 байт
Сидеров: 8
Личеров: 2
Скачали: 0
Здоровье: 100%
Раздающих: 100%
Статус:
Скорость скачивания: 0 байт/сек
Скорость раздачи: 0 байт/сек
Последний сидер: 10 дней 12 часов 39 минут 21 секунду назад
Последний личер: 10 дней 12 часов 39 минут 21 секунду назад
Приватный: Нет (DHT включён)
Здоровье и спорт Скачать торрент
Скачать торрент
[ Размер 17.28 КБ / Просмотров 2 ]

Поделиться



  • Похожие торренты
    Ответы
    Просмотры
    Последнее сообщение

Вернуться в Здоровье и спорт