MBA - Warren Buffett Talk at University of Florida (Transcripts)(language: English) [1998, Видео-семинар, VHSRip]

Открытие, развитие и стратегия введения бизнеса.
Торрент Сидеров Личеров Размер
torrent_2404524.torrent
2 1 254.87 МБ
Аватара пользователя
Stepan
Администратор
Сообщения: 52388
Зарегистрирован: 05 ноя 2011, 20:36

MBA - Warren Buffett Talk at University of Florida (Transcripts)(language: English) [1998, Видео-семинар, VHSRip]

Сообщение Stepan » 05 ноя 2017, 09:28

MBA - Warren Buffett Talk at University of Florida (Transcripts)
Год выпуска: 1998
Страна: США
Жанр: Видео-семинар
Продолжительность: 1:28
Язык: Английский
description:
I just finished watching a talk given by Warren Buffett at the University of Florida. Watch the free video above for yourself to learn some of his thinking! I have written fragmented snippets of some of the things that he talked about below.
If you were graduating and were asked to pick someone from your class who will most likely succeed, what most of us will choose.
His thoughts on investing in Japan.
“Time is the friend of a wonderful business; but the enemy of a lousy business.”
His adversion of using leverage no matter how good the odds are.
“To risk something that is important to you for something this is not important to you is foolish. You only have to get rich once.”
His involvement in Long Term Capital Management.
“Work in a job that you love, and not something that will look good in your resume.”
He buys business that he can understand, with a moat around it and with honest and able management. If he’s unable to see them 10 years from now, he won’t buy it.
This point is worth pondering:
Everyone has a circle of competence when it comes to understanding businesses. It might be 20 stocks or 50 stocks out of the thousands of listed stocks. It is not how big your circle is, but how you stay inside the circle!
Activity versus inactivity.
What he will do if given a chance to live all over again.

Качество: VHSRip
Формат: MPEG
Видео кодек: H.264
Аудио кодек: AAC
Видео: MPEG4 Video (H264) 320x240 29.97fps [GPAC ISO Video Handler]
Аудио: AAC 44100Hz stereo 107Kbps [GPAC ISO Audio Handler]
Format : MPEG-4
Format profile : Base Media
Codec ID : isom
File size : 255 MiB
Duration : 1h 27mn
Overall bit rate : 406 Kbps
Movie name : Warren Buffett MBA Talk
Encoded date : UTC 2007-04-16 09:16:41
Tagged date : UTC 2007-04-16 09:16:41
Video
ID : 1
Format : AVC
Format/Info : Advanced Video Codec
Format profile : Baseline@L1.3
Format settings, CABAC : No
Format settings, ReFrames : 1 frame
Codec ID : avc1
Codec ID/Info : Advanced Video Coding
Duration : 1h 27mn
Bit rate mode : Variable
Bit rate : 296 Kbps
Maximum bit rate : 534 Kbps
Width : 320 pixels
Height : 240 pixels
Display aspect ratio : 4:3
Frame rate mode : Constant
Frame rate : 29.970 fps
Original frame rate : 30.000 fps
Resolution : 8 bits
Colorimetry : 4:2:0
Scan type : Progressive
Bits/(Pixel*Frame) : 0.129
Stream size : 186 MiB (73%)
Writing library : x264 core 44 svn-440
Encoding settings : cabac=0 / ref=1 / deblock=1:0:0 / analyse=0x1:0x31 / me=umh / subme=6 / brdo=0 / mixed_ref=0 / me_range=32 / chroma_me=1 / trellis=0 / 8x8dct=0 / cqm=0 / chroma_qp_offset=0 / slices=1 / nr=0 / bframes=0 / keyint=60 / keyint_min=25 / scenecut=40 / rc=cbr / bitrate=296 / ratetol=1.0 / rceq='blurCplx^(1-qComp)' / qcomp=0.60 / qpmin=10 / qpmax=38 / qpstep=2 / vbv_maxrate=700 / vbv_bufsize=350 / ip_ratio=1.40
Encoded date : UTC 2007-04-16 09:16:41
Tagged date : UTC 2007-04-16 09:17:37
Audio
ID : 2
Format : AAC
Format/Info : Advanced Audio Codec
Format version : Version 4
Format profile : LC
Format settings, SBR : No
Codec ID : 40
Duration : 1h 27mn
Bit rate mode : Variable
Bit rate : 107 Kbps
Maximum bit rate : 127 Kbps
Channel(s) : 2 channels
Channel positions : L R
Sampling rate : 44.1 KHz
Stream size : 67.2 MiB (26%)
Encoded date : UTC 2007-04-16 09:17:06
Tagged date : UTC 2007-04-16 09:17:37
У вас нет необходимых прав для просмотра вложений в этом сообщении.