Анти-Босс (Как избавиться от страха перед начальством) [2009, RUS] (Видеоурок)

Открытие, развитие и стратегия введения бизнеса.
Торрент Сидеров Личеров Размер
torrent_5182107.torrent
1 0 493.31 МБ
Аватара пользователя
Stepan
Администратор
Сообщения: 52388
Зарегистрирован: 05 ноя 2011, 20:36

Анти-Босс (Как избавиться от страха перед начальством) [2009, RUS] (Видеоурок)

Сообщение Stepan » 05 ноя 2017, 09:28

Анти-Босс (Как избавиться от страха перед начальством) [2009, RUS] (Видеоурок)
Страна: Россия
Тематика: Бизнес
Тип раздаваемого материала: Видеоурок
Длительность: 02:35:09
Год выпуска : 2009
Язык: Русский
Перевод: Не требуется
Описание: Тренинг по избавлению от страхов
Навсегда избавиться от страха перед Вашим начальством;
Почувствовать себя уверенным, сильным, целостным человеком;
Узнать структуру формирования страха;
Овладеть простыми, но очень эффективными и фактически неизвестными техниками управления своим начальством;
Использовать слабое звено для мгновенного контроля над Вашими страхами;
Взять под уверенный контроль поток Вашей внутренней жизни;
Взять под контроль эмоциональную атмосферу в Вашем коллективе;
Узнать простую технику, которую можно использовать уже завтра, чтобы страх не парализовал Вашу волю;
Освоить мгновенную технологию обретения 100% уверенности в себе, которую используют спец. службы;
Научиться внушать уверенность слабым и страх тем, кто считает себя сильным;
и много другое...
сам DVD диск утерян, остался только рип
Качество: DVD Rip
Формат: MP4
Видео кодек: H264 (H.264/MPEG-4 AVC)
Аудио кодек: AAC
Video: MPEG4 Video (H264) 720x536 25fps 313kbps
Audio: AAC 44100Hz stereo 125kbps
Format : MPEG-4
Codec ID : MSNV
File size : 493 MiB
Duration : 2h 35mn
Overall bit rate : 445 Kbps
Writing library : AVS
Video
ID : 1
Format : AVC
Format/Info : Advanced Video Codec
Format profile : High@L3.0
Format settings, CABAC : Yes
Format settings, ReFrames : 1 frame
Codec ID : avc1
Codec ID/Info : Advanced Video Coding
Duration : 2h 35mn
Bit rate : 314 Kbps
Width : 720 pixels
Height : 536 pixels
Display aspect ratio : 4:3
Frame rate mode : Constant
Frame rate : 25.000 fps
Color space : YUV
Chroma subsampling : 4:2:0
Bit depth : 8 bits
Scan type : Progressive
Bits/(Pixel*Frame) : 0.033
Stream size : 348 MiB (71%)
Writing library : x264 core 67 r1145bm d2e1e1c
Encoding settings : cabac=1 / ref=1 / deblock=1:0:0 / analyse=0x3:0x13 / me=umh / subme=7 / psy_rd=0.0:0.0 / mixed_ref=0 / me_range=16 / chroma_me=1 / trellis=1 / 8x8dct=1 / cqm=0 / deadzone=21,11 / chroma_qp_offset=0 / threads=1 / thread_queue=1 / nr=0 / decimate=1 / mbaff=0 / bframes=0 / keyint=250 / keyint_min=25 / scenecut=40 / rc=crf / crf=26.0 / qcomp=0.60 / qpmin=10 / qpmax=51 / qpstep=4 / ip_ratio=1.40 / aq=1:1.00
Audio
ID : 2
Format : AAC
Format/Info : Advanced Audio Codec
Format profile : LC
Codec ID : 40
Duration : 2h 35mn
Bit rate mode : Constant
Bit rate : 128 Kbps
Channel(s) : 2 channels
Channel positions : Front: L R
Sampling rate : 44.1 KHz
Compression mode : Lossy
Stream size : 139 MiB (28%)
Бизнес Аудио
Бизнес Видео
Бизнес Книги
У вас нет необходимых прав для просмотра вложений в этом сообщении.