Сообщение

Matrix - мастер-класс "In the flow" [2009, Парикмахерское дело, мастер-класс, DVD5, RUS]

Сообщение Солнышко » 05 ноя 2017, 11:57

Matrix - мастер-класс "In the flow"
Год выпуска: 2009
Страна: Россия
Жанр: Парикмахерское дело, мастер-класс
Продолжительность: 50 минут
Язык: Русский
Описание:
На этом диске вы найдете:
-каталог продукции MATRIX (промо-ролик)
-коллекция стрижек и окрашивания "Медовый соблазн" (промо-ролик)
-коллекция стрижек и стайлинга "Design pulse" (промо-ролик)
-мастер-класс "In the flow" (полностью)
Этот релиз для тех, кто любит полные оригинальные диски без урезки и сжатия.
Качество: DVD5
Формат: DVD Video
Видео кодек: MPEG2
Аудио кодек: LPCM
Видео: PAL 4:3 (720x576), 7 523 Kbps, 25.000 fps
Аудио: 1536 Kbps, 2 channels, 48.0 KHz

General
Complete name : G:\Matrix\VTS_01_2.VOB
Format : MPEG-PS
File size : 1 024 MiB
Duration : 15mn 10s
Overall bit rate : 9 434 Kbps
Video
ID : 224 (0xE0)
Format : MPEG Video
Format version : Version 2
Format profile : Main@Main
Format settings, Matrix : Default
Duration : 15mn 10s
Bit rate mode : Constant
Bit rate : 7 523 Kbps
Nominal bit rate : 7 754 Kbps
Width : 720 pixels
Height : 576 pixels
Display aspect ratio : 4:3
Frame rate : 25.000 fps
Standard : PAL
Colorimetry : 4:2:0
Scan type : Interlaced
Scan order : Bottom Field First
Bits/(Pixel*Frame) : 0.726
Stream size : 817 MiB (80%)
Audio
ID : 160 (0xA0)
Format : PCM
Format settings, Endianness : Big
Format settings, Sign : Signed
Muxing mode : DVD-Video
Duration : 15mn 10s
Bit rate mode : Constant
Bit rate : 1 536 Kbps
Channel(s) : 2 channels
Channel positions : Front: L R
Sampling rate : 48.0 KHz
Resolution : 16 bits
Video delay : -302ms
Stream size : 167 MiB (16%)

Постеры

Соцсети

 

Статистика

Автор: Солнышко
Добавлен: 05 ноя 2017, 11:57
Размер: 3.65 ГБ
Размер: 3 923 363 840 байт
Сидеров: 0
Личеров: 0
Скачали: 0
Здоровье: 0%
Скорость скачивания: 0 байт/сек
Скорость раздачи: 0 байт/сек
Последний сидер: Нет
Последний личер: Нет
Приватный: Нет (DHT включён)
Салон красоты Скачать торрент
Скачать торрент
[ Размер 19.7 КБ / Просмотров 0 ]

Поделиться



Вернуться в Салон красоты