Сообщение

Briohny Smyth | Yoga Made Simple: 30 Minutes to Zen (2015) HDRip [H.264] [EN]

Сообщение Солнышко » 05 ноя 2017, 21:19

Briohny Smyth | Yoga Made Simple: 30 Minutes to Zen (2015) HDRip [H.264] [EN]

Автор (режиссер): Briohny Smyth
Производство: Daily Burn
Жанр: Йога

Описание:
Представляем вам новую программу Yoga Made Simple от Daily Burn . Независимо от того, являетесь ли вы совершенно новичком для йоги или занимаетесь в течение десятилетий, эти восемь коротких 25-30-минутных тренировок помогут вам создать силу, стимулируют ваше тело, снимут стресс.

Продолжительность: 03:52:43
Качество видео: HDRip
Перевод: Отсутствует
Язык озвучки: Английский

Видео: AVC/H.264, 854х480, ~880 Kbps
Аудио: AAC, 2 ch, 88.7 Kbps, VBR
Код: Выделить всё
Briohny Smyth - 1. Breath  Body Flow Surya A. Yoga Made Simple.mp4
Format                      : MPEG-4
Format profile              : Base Media
Codec ID                    : isom (isom/iso2/avc1/mp41)
File size                   : 189 MiB
Duration                    : 27 min 8 s
Overall bit rate mode       : Variable
Overall bit rate            : 973 kb/s
Writing application         : Lavf56.25.101

Video
ID                          : 1
Format                      : AVC
Format/Info                 : Advanced Video Codec
Format profile              : Baseline@L3
Format settings, CABAC      : No
Format settings, RefFrames  : 3 frames
Codec ID                    : avc1
Codec ID/Info               : Advanced Video Coding
Duration                    : 27 min 8 s
Bit rate                    : 880 kb/s
Width                       : 854 pixels
Height                      : 480 pixels
Display aspect ratio        : 16:9
Original display aspect rat : 16:9
Frame rate mode             : Constant
Frame rate                  : 23.976 (24000/1001) FPS
Color space                 : YUV
Chroma subsampling          : 4:2:0
Bit depth                   : 8 bits
Scan type                   : Progressive
Bits/(Pixel*Frame)          : 0.090
Stream size                 : 171 MiB (90%)
Writing library             : x264 core 142
Encoding settings           : cabac=0 / ref=3 / deblock=1:0:0 / analyse=0x1:0x111 / me=hex / subme=7 / psy=1 / psy_rd=1.00:0.00 / mixed_ref=1 / me_range=16 / chroma_me=1 / trellis=1 / 8x8dct=0 / cqm=0 / deadzone=21,11 / fast_pskip=1 / chroma_qp_offset=-2 / threads=6 / lookahead_threads=1 / sliced_threads=0 / nr=0 / decimate=1 / interlaced=0 / bluray_compat=0 / constrained_intra=0 / bframes=0 / weightp=0 / keyint=24 / keyint_min=2 / scenecut=40 / intra_refresh=0 / rc_lookahead=24 / rc=2pass / mbtree=1 / bitrate=880 / ratetol=1.0 / qcomp=0.60 / qpmin=0 / qpmax=69 / qpstep=4 / cplxblur=20.0 / qblur=0.5 / ip_ratio=1.40 / aq=1:1.00

Audio
ID                          : 2
Format                      : AAC
Format/Info                 : Advanced Audio Codec
Format profile              : LC
Codec ID                    : 40
Duration                    : 27 min 8 s
Duration_LastFrame          : -4 ms
Bit rate mode               : Variable
Bit rate                    : 88.7 kb/s
Maximum bit rate            : 160 kb/s
Channel(s)                  : 2 channels
Channel positions           : Front: L R
Sampling rate               : 44.1 kHz
Frame rate                  : 43.066 FPS (1024 SPF)
Compression mode            : Lossy
Stream size                 : 17.2 MiB (9%)
Default                     : Yes
Alternate group             : 1
1. Breath Body Flow Surya A. (00:27:08)
2. Root to Rise Surya B. (00:33:12)
3. Heart Open Flow Surya C. (00:31:29)
4. Dancing Warrior Flow. (00:33:04)
5. De-Stress. (00:28:42)
6. Energize. (00:24:36)
7. Core Strong. (00:28:36)
8. Warrior Balance. (00:25:54)

Yoga Made Simple Calendar (jpg).

Скриншоты:



Время раздачи: с 15.00 до 22.00 (до появления первых 3-5 скачавших)

Постеры

Соцсети

 

Статистика

Автор: Солнышко
Добавлен: 05 ноя 2017, 21:19
Размер: 1.58 ГБ
Размер: 1 696 355 696 байт
Сидеров: 1
Личеров: 3
Скачали: 0
Здоровье: 33%
Раздающих: 100%
Скорость скачивания: 0 байт/сек
Скорость раздачи: 0 байт/сек
Последний сидер: 7 дней 10 часов 14 минут 38 секунд назад
Последний личер: 7 дней 10 часов 14 минут 38 секунд назад
Приватный: Нет (DHT включён)
Здоровье и спорт Скачать торрент
Скачать торрент
[ Размер 17.31 КБ / Просмотров 0 ]

Поделиться



Вернуться в Здоровье и спорт