Сообщение

Джастин Прайс | TRX Biomechanics - Healthy Back (2011) DVDRip [EN]

Сообщение Солнышко » 05 ноя 2017, 21:21

Джастин Прайс | TRX Biomechanics - Healthy Back (2011) DVDRip [EN]

Автор (режиссер): Джастин Прайс
Жанр: Функциональный тренинг, фитнес

Описание:
TRX Biomechanics - Healthy Back: Восстановление мышечного баланса в спине - учебное пособие для начинающих с серией целенаправленных растягивающих и силовых упражнений, которые сделают ваш фитнес-режим и повседневную деятельность легче, здоровее и безболезненнее.

Выполняя корректирующие упражнения со специалистом и тренером года IDEA Justin Price в режиме, предназначенном для улучшения и выравнивания осанки, вы сможете развить силу основных мышц спины, а также снять напряжение с поясницы.

Продолжительность: 01:40:41
Качество видео: DVDRip
Перевод: Отсутствует
Язык озвучки: Английский

Видео: Xvid, 720x400, ~940 Kbps
Аудио: MP3, 2 ch, 128 Kbps
Код: Выделить всё
Общее
Полное имя                               : I:\Разное\Здоровье\[TRX]\TRX Biomechanics - Healthy Back\1.  Intro.avi
Формат                                   : AVI
Формат/Информация                        : Audio Video Interleave
Размер файла                             : 32,0 Мбайт
Продолжительность                        : 4 м. 8 с.
Общий поток                              : 1078 Кбит/сек
Название фильма                          : TRX Healthy Back_01 Intro
Программа кодирования                    : VirtualDubMod 1.5.10.2 (build 2540/release)
Авторское право                          : Olu6ka

Видео
Идентификатор                            : 0
Формат                                   : MPEG-4 Visual
Профиль формата                          : Advanced Simple@L5
Настройки формата                        : BVOP1 / Custom Matrix
Параметр BVOP формата                    : 1
Параметр QPel формата                    : Нет
Параметр GMC формата                     : Без точки перехода
Параметр матрицы формата                 : Выборочная
Идентификатор кодека                     : XVID
Идентификатор кодека/Подсказка           : XviD
Продолжительность                        : 4 м. 8 с.
Битрейт                                  : 940 Кбит/сек
Ширина                                   : 720 пикселей
Высота                                   : 400 пикселей
Соотношение сторон                       : 16:9
Частота кадров                           : 23,976 (24000/1001) кадра/сек
Цветовое пространство                    : YUV
Субдискретизация насыщенности            : 4:2:0
Битовая глубина                          : 8 бит
Тип развёртки                            : Прогрессивная
Метод сжатия                             : С потерями
Бит/(Пиксели*Кадры)                      : 0.136
Размер потока                            : 27,9 Мбайт (87%)
Библиотека кодирования                   : XviD 1.2.1 (UTC 2008-12-04)

Аудио
Идентификатор                            : 1
Формат                                   : MPEG Audio
Версия формата                           : Version 1
Профиль формата                          : Layer 3
Настройки формата                        : Joint stereo
Режим                                    : Joint stereo
Идентификатор кодека                     : 55
Идентификатор кодека/Подсказка           : MP3
Продолжительность                        : 4 м. 8 с.
Вид битрейта                             : Постоянный
Битрейт                                  : 128 Кбит/сек
Каналы                                   : 2 канала
Частота                                  : 48,0 КГц
Метод сжатия                             : С потерями
Размер потока                            : 3,80 Мбайт (12%)
Выравнивание                             : Соединение по промежуткам
Продолжительность промежутка             : 42  мс. (1,00 видеокадр)
Время предзагрузки промежутка            : 504  мс.

Общее
Полное имя                               : I:\Разное\Здоровье\[TRX]\TRX Biomechanics - Healthy Back\2. TRX Setup & Use.avi
Формат                                   : AVI
Формат/Информация                        : Audio Video Interleave
Размер файла                             : 137 Мбайт
Продолжительность                        : 12 м. 23 с.
Общий поток                              : 1549 Кбит/сек
Название фильма                          : TRX Healthy Back_02 TRX Setup & Use
Программа кодирования                    : VirtualDubMod 1.5.10.2 (build 2540/release)
Авторское право                          : Olu6ka

Видео
Идентификатор                            : 0
Формат                                   : MPEG-4 Visual
Профиль формата                          : Advanced Simple@L5
Настройки формата                        : BVOP1 / Custom Matrix
Параметр BVOP формата                    : 1
Параметр QPel формата                    : Нет
Параметр GMC формата                     : Без точки перехода
Параметр матрицы формата                 : Выборочная
Идентификатор кодека                     : XVID
Идентификатор кодека/Подсказка           : XviD
Продолжительность                        : 12 м. 23 с.
Битрейт                                  : 1412 Кбит/сек
Ширина                                   : 720 пикселей
Высота                                   : 400 пикселей
Соотношение сторон                       : 16:9
Частота кадров                           : 23,976 (24000/1001) кадра/сек
Цветовое пространство                    : YUV
Субдискретизация насыщенности            : 4:2:0
Битовая глубина                          : 8 бит
Тип развёртки                            : Прогрессивная
Метод сжатия                             : С потерями
Бит/(Пиксели*Кадры)                      : 0.204
Размер потока                            : 125 Мбайт (91%)
Библиотека кодирования                   : XviD 1.2.1 (UTC 2008-12-04)

Аудио
Идентификатор                            : 1
Формат                                   : MPEG Audio
Версия формата                           : Version 1
Профиль формата                          : Layer 3
Настройки формата                        : Joint stereo / MS Stereo
Режим                                    : Joint stereo
Расширение режима                        : MS Stereo
Идентификатор кодека                     : 55
Идентификатор кодека/Подсказка           : MP3
Продолжительность                        : 12 м. 23 с.
Вид битрейта                             : Постоянный
Битрейт                                  : 128 Кбит/сек
Каналы                                   : 2 канала
Частота                                  : 48,0 КГц
Метод сжатия                             : С потерями
Размер потока                            : 11,4 Мбайт (8%)
Выравнивание                             : Соединение по промежуткам
Продолжительность промежутка             : 42  мс. (1,00 видеокадр)
Время предзагрузки промежутка            : 504  мс.

Общее
Полное имя                               : I:\Разное\Здоровье\[TRX]\TRX Biomechanics - Healthy Back\3. Exercise Library.avi
Формат                                   : AVI
Формат/Информация                        : Audio Video Interleave
Размер файла                             : 412 Мбайт
Продолжительность                        : 36 м. 44 с.
Общий поток                              : 1568 Кбит/сек
Название фильма                          : TRX Healthy Back_03 Exercise Library
Программа кодирования                    : VirtualDubMod 1.5.10.2 (build 2540/release)
Авторское право                          : Olu6ka

Видео
Идентификатор                            : 0
Формат                                   : MPEG-4 Visual
Профиль формата                          : Advanced Simple@L5
Настройки формата                        : BVOP1 / Custom Matrix
Параметр BVOP формата                    : 1
Параметр QPel формата                    : Нет
Параметр GMC формата                     : Без точки перехода
Параметр матрицы формата                 : Выборочная
Идентификатор кодека                     : XVID
Идентификатор кодека/Подсказка           : XviD
Продолжительность                        : 36 м. 44 с.
Битрейт                                  : 1430 Кбит/сек
Ширина                                   : 720 пикселей
Высота                                   : 400 пикселей
Соотношение сторон                       : 16:9
Частота кадров                           : 23,976 (24000/1001) кадра/сек
Цветовое пространство                    : YUV
Субдискретизация насыщенности            : 4:2:0
Битовая глубина                          : 8 бит
Тип развёртки                            : Прогрессивная
Метод сжатия                             : С потерями
Бит/(Пиксели*Кадры)                      : 0.207
Размер потока                            : 376 Мбайт (91%)
Библиотека кодирования                   : XviD 1.2.1 (UTC 2008-12-04)

Аудио
Идентификатор                            : 1
Формат                                   : MPEG Audio
Версия формата                           : Version 1
Профиль формата                          : Layer 3
Настройки формата                        : Joint stereo / MS Stereo
Режим                                    : Joint stereo
Расширение режима                        : MS Stereo
Идентификатор кодека                     : 55
Идентификатор кодека/Подсказка           : MP3
Продолжительность                        : 36 м. 44 с.
Вид битрейта                             : Постоянный
Битрейт                                  : 128 Кбит/сек
Каналы                                   : 2 канала
Частота                                  : 48,0 КГц
Метод сжатия                             : С потерями
Размер потока                            : 33,6 Мбайт (8%)
Выравнивание                             : Соединение по промежуткам
Продолжительность промежутка             : 42  мс. (1,00 видеокадр)
Время предзагрузки промежутка            : 504  мс.

Общее
Полное имя                               : I:\Разное\Здоровье\[TRX]\TRX Biomechanics - Healthy Back\4. Workout.avi
Формат                                   : AVI
Формат/Информация                        : Audio Video Interleave
Размер файла                             : 530 Мбайт
Продолжительность                        : 47 м. 24 с.
Общий поток                              : 1563 Кбит/сек
Название фильма                          : TRX Healthy Back_04 Workout
Программа кодирования                    : VirtualDubMod 1.5.10.2 (build 2540/release)
Авторское право                          : Olu6ka

Видео
Идентификатор                            : 0
Формат                                   : MPEG-4 Visual
Профиль формата                          : Advanced Simple@L5
Настройки формата                        : BVOP1 / Custom Matrix
Параметр BVOP формата                    : 1
Параметр QPel формата                    : Нет
Параметр GMC формата                     : Без точки перехода
Параметр матрицы формата                 : Выборочная
Идентификатор кодека                     : XVID
Идентификатор кодека/Подсказка           : XviD
Продолжительность                        : 47 м. 24 с.
Битрейт                                  : 1426 Кбит/сек
Ширина                                   : 720 пикселей
Высота                                   : 400 пикселей
Соотношение сторон                       : 16:9
Частота кадров                           : 23,976 (24000/1001) кадра/сек
Цветовое пространство                    : YUV
Субдискретизация насыщенности            : 4:2:0
Битовая глубина                          : 8 бит
Тип развёртки                            : Прогрессивная
Метод сжатия                             : С потерями
Бит/(Пиксели*Кадры)                      : 0.206
Размер потока                            : 483 Мбайт (91%)
Библиотека кодирования                   : XviD 1.2.1 (UTC 2008-12-04)

Аудио
Идентификатор                            : 1
Формат                                   : MPEG Audio
Версия формата                           : Version 1
Профиль формата                          : Layer 3
Настройки формата                        : Joint stereo / MS Stereo
Режим                                    : Joint stereo
Расширение режима                        : MS Stereo
Идентификатор кодека                     : 55
Идентификатор кодека/Подсказка           : MP3
Продолжительность                        : 47 м. 24 с.
Вид битрейта                             : Постоянный
Битрейт                                  : 128 Кбит/сек
Каналы                                   : 2 канала
Частота                                  : 48,0 КГц
Метод сжатия                             : С потерями
Размер потока                            : 43,4 Мбайт (8%)
Выравнивание                             : Соединение по промежуткам
Продолжительность промежутка             : 42  мс. (1,00 видеокадр)
Время предзагрузки промежутка            : 504  мс.

Скриншоты:



Время раздачи: 24/7 (до появления первых 3-5 скачавших)

Постеры

Соцсети

 

Статистика

Автор: Солнышко
Добавлен: 05 ноя 2017, 21:21
Размер: 1.09 ГБ
Размер: 1 165 162 496 байт
Сидеров: 2
Личеров: 0
Скачали: 0
Здоровье: 100%
Раздающих: 100%
Скорость скачивания: 0 байт/сек
Скорость раздачи: 0 байт/сек
Последний сидер: 2 дня 4 часа 39 минут 58 секунд назад
Последний личер: Нет
Приватный: Нет (DHT включён)
Здоровье и спорт Скачать торрент
Скачать торрент
[ Размер 11.84 КБ / Просмотров 1 ]

Поделиться



Вернуться в Здоровье и спорт