Сообщение

Бадди Ли | TRX Essentials Cardio Circuit Workout (2009) DVDRip [EN]

Сообщение Солнышко » 05 ноя 2017, 21:22

Бадди Ли | TRX Essentials Cardio Circuit Workout (2009) DVDRip [EN]

Автор (режиссер): Бадди Ли
Жанр: Функциональный тренинг, фитнес

Описание:
Войдите в форму быстро с Cardio Circuit. Эта заряжающая супер-энергией тренировка, сочетающая в себе силовой и кардио-тренинг. Наша уникальная интервальная программа представлена компанией TRX® Suspension Training® в виде анаэробной, жиросжигающей тренировки, преимущественно благодаря преобладанию прыжков через скакалку, под руководством друга Олимпийских чемпионов Бадди Ли, который разработал революционные тренировки с использованием скакалки, для спортсменов.
В комплекте присутствует руководство по тренировке.

Продолжительность: 01:36:37
Качество видео: DVDRip
Перевод: Отсутствует
Язык озвучки: Английский

Видео: Xvid, 720x400, ~1243 Kbps
Аудио: MP3, 2 ch, 128 Kbps
Код: Выделить всё
Общее
Полное имя                               : I:\Разное\Здоровье\[TRX]\TRX Essentials Cardio Circuit Workout\1. Jump Rope Clinic.avi
Формат                                   : AVI
Формат/Информация                        : Audio Video Interleave
Размер файла                             : 163 Мбайт
Продолжительность                        : 16 м. 30 с.
Общий поток                              : 1381 Кбит/сек
Название фильма                          : TRX Essentials Cardio Circuit_01 Jump Rope Clinic
Программа кодирования                    : VirtualDubMod 1.5.10.2 (build 2540/release)
Авторское право                          : Olu6ka

Видео
Идентификатор                            : 0
Формат                                   : MPEG-4 Visual
Профиль формата                          : Advanced Simple@L5
Настройки формата                        : BVOP1
Параметр BVOP формата                    : 1
Параметр QPel формата                    : Нет
Параметр GMC формата                     : Без точки перехода
Параметр матрицы формата                 : Default (MPEG)
Идентификатор кодека                     : XVID
Идентификатор кодека/Подсказка           : XviD
Продолжительность                        : 16 м. 30 с.
Битрейт                                  : 1243 Кбит/сек
Ширина                                   : 720 пикселей
Высота                                   : 400 пикселей
Соотношение сторон                       : 16:9
Частота кадров                           : 23,976 (24000/1001) кадра/сек
Цветовое пространство                    : YUV
Субдискретизация насыщенности            : 4:2:0
Битовая глубина                          : 8 бит
Тип развёртки                            : Чересстрочная
Порядок развёртки                        : Нижнее поле первое
Метод сжатия                             : С потерями
Бит/(Пиксели*Кадры)                      : 0.180
Размер потока                            : 147 Мбайт (90%)
Библиотека кодирования                   : XviD 1.1.2 (UTC 2006-11-01)

Аудио
Идентификатор                            : 1
Формат                                   : MPEG Audio
Версия формата                           : Version 1
Профиль формата                          : Layer 3
Настройки формата                        : Joint stereo / MS Stereo
Режим                                    : Joint stereo
Расширение режима                        : MS Stereo
Идентификатор кодека                     : 55
Идентификатор кодека/Подсказка           : MP3
Продолжительность                        : 16 м. 30 с.
Вид битрейта                             : Постоянный
Битрейт                                  : 128 Кбит/сек
Каналы                                   : 2 канала
Частота                                  : 48,0 КГц
Метод сжатия                             : С потерями
Размер потока                            : 15,1 Мбайт (9%)
Выравнивание                             : Разделение по промежуткам
Продолжительность промежутка             : 42  мс. (1,00 видеокадр)
Время предзагрузки промежутка            : 500  мс.

Общее
Полное имя                               : I:\Разное\Здоровье\[TRX]\TRX Essentials Cardio Circuit Workout\2. Workout.avi
Формат                                   : AVI
Формат/Информация                        : Audio Video Interleave
Размер файла                             : 549 Мбайт
Продолжительность                        : 1 ч. 8 м.
Общий поток                              : 1127 Кбит/сек
Название фильма                          : TRX Essentials Cardio Circuit_02 Workout
Программа кодирования                    : VirtualDubMod 1.5.10.2 (build 2540/release)
Авторское право                          : Olu6ka

Видео
Идентификатор                            : 0
Формат                                   : MPEG-4 Visual
Профиль формата                          : Advanced Simple@L5
Настройки формата                        : BVOP1
Параметр BVOP формата                    : 1
Параметр QPel формата                    : Нет
Параметр GMC формата                     : Без точки перехода
Параметр матрицы формата                 : Default (MPEG)
Идентификатор кодека                     : XVID
Идентификатор кодека/Подсказка           : XviD
Продолжительность                        : 1 ч. 8 м.
Битрейт                                  : 989 Кбит/сек
Ширина                                   : 720 пикселей
Высота                                   : 400 пикселей
Соотношение сторон                       : 16:9
Частота кадров                           : 23,976 (24000/1001) кадра/сек
Цветовое пространство                    : YUV
Субдискретизация насыщенности            : 4:2:0
Битовая глубина                          : 8 бит
Тип развёртки                            : Чересстрочная
Порядок развёртки                        : Нижнее поле первое
Метод сжатия                             : С потерями
Бит/(Пиксели*Кадры)                      : 0.143
Размер потока                            : 482 Мбайт (88%)
Библиотека кодирования                   : XviD 1.1.2 (UTC 2006-11-01)

Аудио
Идентификатор                            : 1
Формат                                   : MPEG Audio
Версия формата                           : Version 1
Профиль формата                          : Layer 3
Настройки формата                        : Joint stereo / MS Stereo
Режим                                    : Joint stereo
Расширение режима                        : MS Stereo
Идентификатор кодека                     : 55
Идентификатор кодека/Подсказка           : MP3
Продолжительность                        : 1 ч. 8 м.
Вид битрейта                             : Постоянный
Битрейт                                  : 128 Кбит/сек
Каналы                                   : 2 канала
Частота                                  : 48,0 КГц
Метод сжатия                             : С потерями
Задержка видео                           : 5 мс.
Размер потока                            : 62,3 Мбайт (11%)
Выравнивание                             : Разделение по промежуткам
Продолжительность промежутка             : 42  мс. (1,00 видеокадр)
Время предзагрузки промежутка            : 500  мс.

Общее
Полное имя                               : I:\Разное\Здоровье\[TRX]\TRX Essentials Cardio Circuit Workout\TRX SetUp & Use & Other Programs.avi
Формат                                   : AVI
Формат/Информация                        : Audio Video Interleave
Размер файла                             : 59,3 Мбайт
Продолжительность                        : 7 м. 55 с.
Общий поток                              : 1045 Кбит/сек
Название фильма                          : TRX_SetUp & Use & Other Programs
Программа кодирования                    : VirtualDubMod 1.5.10.2 (build 2540/release)
Авторское право                          : Olu6ka

Видео
Идентификатор                            : 0
Формат                                   : MPEG-4 Visual
Профиль формата                          : Advanced Simple@L5
Настройки формата                        : BVOP1
Параметр BVOP формата                    : 1
Параметр QPel формата                    : Нет
Параметр GMC формата                     : Без точки перехода
Параметр матрицы формата                 : Default (MPEG)
Идентификатор кодека                     : XVID
Идентификатор кодека/Подсказка           : XviD
Продолжительность                        : 7 м. 55 с.
Битрейт                                  : 908 Кбит/сек
Ширина                                   : 720 пикселей
Высота                                   : 400 пикселей
Соотношение сторон                       : 16:9
Частота кадров                           : 23,976 (24000/1001) кадра/сек
Цветовое пространство                    : YUV
Субдискретизация насыщенности            : 4:2:0
Битовая глубина                          : 8 бит
Тип развёртки                            : Чересстрочная
Порядок развёртки                        : Нижнее поле первое
Метод сжатия                             : С потерями
Бит/(Пиксели*Кадры)                      : 0.131
Размер потока                            : 51,5 Мбайт (87%)
Библиотека кодирования                   : XviD 1.1.2 (UTC 2006-11-01)

Аудио
Идентификатор                            : 1
Формат                                   : MPEG Audio
Версия формата                           : Version 1
Профиль формата                          : Layer 3
Настройки формата                        : Joint stereo / MS Stereo
Режим                                    : Joint stereo
Расширение режима                        : MS Stereo
Идентификатор кодека                     : 55
Идентификатор кодека/Подсказка           : MP3
Продолжительность                        : 7 м. 55 с.
Вид битрейта                             : Постоянный
Битрейт                                  : 128 Кбит/сек
Каналы                                   : 2 канала
Частота                                  : 48,0 КГц
Метод сжатия                             : С потерями
Задержка видео                           : 23 мс.
Размер потока                            : 7,26 Мбайт (12%)
Выравнивание                             : Разделение по промежуткам
Продолжительность промежутка             : 42  мс. (1,00 видеокадр)
Время предзагрузки промежутка            : 500  мс.

Общее
Полное имя                               : I:\Разное\Здоровье\[TRX]\TRX Essentials Cardio Circuit Workout\TRX Who is Buddy Lee.avi
Формат                                   : AVI
Формат/Информация                        : Audio Video Interleave
Размер файла                             : 31,1 Мбайт
Продолжительность                        : 4 м. 6 с.
Общий поток                              : 1059 Кбит/сек
Программа кодирования                    : VirtualDubMod 1.5.10.2 (build 2540/release)
Библиотека кодирования                   : VirtualDubMod build 2540/release

Видео
Идентификатор                            : 0
Формат                                   : MPEG-4 Visual
Профиль формата                          : Advanced Simple@L5
Настройки формата                        : BVOP1
Параметр BVOP формата                    : 1
Параметр QPel формата                    : Нет
Параметр GMC формата                     : Без точки перехода
Параметр матрицы формата                 : Default (MPEG)
Идентификатор кодека                     : XVID
Идентификатор кодека/Подсказка           : XviD
Продолжительность                        : 4 м. 6 с.
Битрейт                                  : 921 Кбит/сек
Ширина                                   : 720 пикселей
Высота                                   : 400 пикселей
Соотношение сторон                       : 16:9
Частота кадров                           : 23,976 (24000/1001) кадра/сек
Цветовое пространство                    : YUV
Субдискретизация насыщенности            : 4:2:0
Битовая глубина                          : 8 бит
Тип развёртки                            : Чересстрочная
Порядок развёртки                        : Нижнее поле первое
Метод сжатия                             : С потерями
Бит/(Пиксели*Кадры)                      : 0.133
Размер потока                            : 27,1 Мбайт (87%)
Библиотека кодирования                   : XviD 1.1.2 (UTC 2006-11-01)

Аудио
Идентификатор                            : 1
Формат                                   : MPEG Audio
Версия формата                           : Version 1
Профиль формата                          : Layer 3
Настройки формата                        : Joint stereo / MS Stereo
Режим                                    : Joint stereo
Расширение режима                        : MS Stereo
Идентификатор кодека                     : 55
Идентификатор кодека/Подсказка           : MP3
Продолжительность                        : 4 м. 6 с.
Вид битрейта                             : Постоянный
Битрейт                                  : 128 Кбит/сек
Каналы                                   : 2 канала
Частота                                  : 48,0 КГц
Метод сжатия                             : С потерями
Размер потока                            : 3,76 Мбайт (12%)
Выравнивание                             : Разделение по промежуткам
Продолжительность промежутка             : 42  мс. (1,00 видеокадр)
Время предзагрузки промежутка            : 500  мс.
Библиотека кодирования                   : LAME3.98.2

Общее
Полное имя                               : I:\Разное\Здоровье\[TRX]\TRX Essentials Cardio Circuit Workout\Workout Guide.pdf
Формат                                   : PDF
Версия формата                           : 1.6
Размер файла                             : 12,2 Мбайт

Текст
Формат                                   : PDF

Скриншоты:



Время раздачи: С 09:00 до 23:30 (до появления первых 3-5 скачавших)

Постеры

Соцсети

 

Статистика

Автор: Солнышко
Добавлен: 05 ноя 2017, 21:22
Размер: 814.26 МБ
Размер: 853 812 866 байт
Сидеров: 2
Личеров: 0
Скачали: 0
Здоровье: 100%
Раздающих: 100%
Скорость скачивания: 0 байт/сек
Скорость раздачи: 0 байт/сек
Последний сидер: 1 месяц 7 дней 10 часов 29 минут 28 секунд назад
Последний личер: Нет
Приватный: Нет (DHT включён)
Здоровье и спорт Скачать торрент
Скачать торрент
[ Размер 16.96 КБ / Просмотров 0 ]

Поделиться



  • Похожие торренты
    Ответы
    Просмотры
    Последнее сообщение

Вернуться в Здоровье и спорт