Сообщение

Фрейзер Квилч | TRX Essentials Flexibility Workout (2009) DVDRip [EN]

Сообщение Солнышко » 05 ноя 2017, 21:22

Фрейзер Квилч | TRX Essentials Flexibility Workout (2009) DVDRip [EN]

Автор (режиссер): Фрейзер Квилч
Жанр: Функциональный тренинг, фитнес

Описание:
Квилч Фрейзер в любом месте проведет вас через серию активных TRX сессий.
Руки, ноги, туловище, спина, плечи и шея: вы добьетесь улучшения осанки, повышенной стабильности с головы до ног.
Предназначен для адаптации к любому уровню фитнеса, эта программа идеально подходит для профессиональных спортсменов и начинающих любителей фитнеса.
В комплекте присутствует руководство по тренировке.

Продолжительность: 00:52:20
Качество видео: DVDRip
Перевод: Отсутствует
Язык озвучки: Английский

Видео: Xvid, 720х400, ~1642 Kbps
Аудио: MP3, 2 ch, 128 Kbps
Код: Выделить всё
Общее
Полное имя                               : I:\Разное\Здоровье\[TRX]\TRX Essentials Flexibility Workout\TRX Essentials - Flexibility.avi
Формат                                   : AVI
Формат/Информация                        : Audio Video Interleave
Размер файла                             : 667 Мбайт
Продолжительность                        : 52 м. 20 с.
Общий поток                              : 1781 Кбит/сек
Название фильма                          : TRX Essentials - Flexibility
Программа кодирования                    : VirtualDubMod 1.5.10.2 (build 2540/release)
Авторское право                          : Olu6ka

Видео
Идентификатор                            : 0
Формат                                   : MPEG-4 Visual
Профиль формата                          : Advanced Simple@L5
Настройки формата                        : BVOP1 / Custom Matrix
Параметр BVOP формата                    : 1
Параметр QPel формата                    : Нет
Параметр GMC формата                     : Без точки перехода
Параметр матрицы формата                 : Выборочная
Идентификатор кодека                     : XVID
Идентификатор кодека/Подсказка           : XviD
Продолжительность                        : 52 м. 20 с.
Битрейт                                  : 1642 Кбит/сек
Ширина                                   : 720 пикселей
Высота                                   : 400 пикселей
Соотношение сторон                       : 16:9
Частота кадров                           : 29,970 (30000/1001) кадров/сек
Цветовое пространство                    : YUV
Субдискретизация насыщенности            : 4:2:0
Битовая глубина                          : 8 бит
Тип развёртки                            : Прогрессивная
Метод сжатия                             : С потерями
Бит/(Пиксели*Кадры)                      : 0.190
Размер потока                            : 614 Мбайт (92%)
Библиотека кодирования                   : XviD 1.2.1 (UTC 2008-12-04)

Аудио
Идентификатор                            : 1
Формат                                   : MPEG Audio
Версия формата                           : Version 1
Профиль формата                          : Layer 3
Настройки формата                        : Joint stereo / MS Stereo
Режим                                    : Joint stereo
Расширение режима                        : MS Stereo
Идентификатор кодека                     : 55
Идентификатор кодека/Подсказка           : MP3
Продолжительность                        : 52 м. 19 с.
Вид битрейта                             : Постоянный
Битрейт                                  : 128 Кбит/сек
Каналы                                   : 2 канала
Частота                                  : 44,1 КГц
Метод сжатия                             : С потерями
Размер потока                            : 47,9 Мбайт (7%)
Выравнивание                             : Разделение по промежуткам
Продолжительность промежутка             : 32  мс. (0,97 видеокадр)
Время предзагрузки промежутка            : 500  мс.

Скриншоты:



Время раздачи: С 09:00 до 23:30 (до появления первых 3-5 скачавших)

Постеры

Соцсети

 

Статистика

Автор: Солнышко
Добавлен: 05 ноя 2017, 21:22
Размер: 672.3 МБ
Размер: 704 956 415 байт
Сидеров: 2
Личеров: 0
Скачали: 0
Здоровье: 100%
Раздающих: 100%
Скорость скачивания: 0 байт/сек
Скорость раздачи: 0 байт/сек
Последний сидер: 5 дней 12 часов 24 минуты 46 секунд назад
Последний личер: Нет
Приватный: Нет (DHT включён)
Здоровье и спорт Скачать торрент
Скачать торрент
[ Размер 14.04 КБ / Просмотров 0 ]

Поделиться



  • Похожие торренты
    Ответы
    Просмотры
    Последнее сообщение

Вернуться в Здоровье и спорт