Сообщение

Rudy Mettia | Yoga Warrior 365 (2013) DVDRip [H.264] [EN]

Сообщение Солнышко » 05 ноя 2017, 21:23

Rudy Mettia | Yoga Warrior 365 (2013) DVDRip [H.264] [EN]

Автор (режиссер): Rudy Mettia
Производство: США
Жанр: Йога

Описание:
Интегрированная программа йоги на всю жизнь, созданная Руди Меттия. Yoga Warrior 365 состоит из 14 тематических классов, 36 обучающих программ, руководства по программе, календаря занятий для начального, среднего, продвинутого уровня. Идеально подходит для развития или углубления повседневной практики йоги или дополнения к другим формам упражнений.

Продолжительность: 16:30:24
Качество видео: DVDRip
Перевод: Отсутствует
Язык озвучки: Английский

Видео: AVC/H.264, 626-640х360, ~272-1468 Kbps
Аудио: AAC, 2 ch, 96 Kbps, VBR
Код: Выделить всё
Yoga Warrior 365\Gentle Warrior.mp4
Format                      : MPEG-4
Format profile              : Base Media / Version 2
Codec ID                    : mp42 (isom/iso2/avc1/mp41)
File size                   : 279 MiB
Duration                    : 1 h 0 min
Overall bit rate mode       : Variable
Overall bit rate            : 646 kb/s
Writing application         : HandBrake 0.10.0 2014112200

Video
ID                          : 1
Format                      : AVC
Format/Info                 : Advanced Video Codec
Format profile              : Main@L4
Format settings             : CABAC / 4 Ref Frames
Format settings, CABAC      : Yes
Format settings, RefFrames  : 4 frames
Codec ID                    : avc1
Codec ID/Info               : Advanced Video Coding
Duration                    : 1 h 0 min
Bit rate                    : 542 kb/s
Width                       : 626 pixels
Height                      : 360 pixels
Display aspect ratio        : 1.739
Frame rate mode             : Variable
Frame rate                  : 23.976 (23976/1000) FPS
Minimum frame rate          : 8.563 FPS
Maximum frame rate          : 29.970 FPS
Color space                 : YUV
Chroma subsampling          : 4:2:0
Bit depth                   : 8 bits
Scan type                   : Progressive
Bits/(Pixel*Frame)          : 0.100
Stream size                 : 234 MiB (84%)
Writing library             : x264 core 142 r2479 dd79a61
Encoding settings           : cabac=1 / ref=1 / deblock=1:0:0 / analyse=0x1:0x111 / me=hex / subme=2 / psy=1 / psy_rd=1.00:0.00 / mixed_ref=0 / me_range=16 / chroma_me=1 / trellis=0 / 8x8dct=0 / cqm=0 / deadzone=21,11 / fast_pskip=1 / chroma_qp_offset=0 / threads=6 / lookahead_threads=2 / sliced_threads=0 / nr=0 / decimate=1 / interlaced=0 / bluray_compat=0 / constrained_intra=0 / bframes=3 / b_pyramid=2 / b_adapt=1 / b_bias=0 / direct=1 / weightb=1 / open_gop=0 / weightp=1 / keyint=240 / keyint_min=24 / scenecut=40 / intra_refresh=0 / rc_lookahead=10 / rc=crf / mbtree=1 / crf=20.0 / qcomp=0.60 / qpmin=0 / qpmax=69 / qpstep=4 / vbv_maxrate=20000 / vbv_bufsize=25000 / crf_max=0.0 / nal_hrd=none / filler=0 / ip_ratio=1.40 / aq=1:1.00
Color range                 : Limited
Color primaries             : BT.601 NTSC
Transfer characteristics    : BT.709
Matrix coefficients         : BT.601
Menus                       : 3

Audio
ID                          : 2
Format                      : AAC
Format/Info                 : Advanced Audio Codec
Format profile              : LC
Codec ID                    : mp4a-40-2
Duration                    : 1 h 0 min
Bit rate mode               : Variable
Bit rate                    : 96.0 kb/s
Channel(s)                  : 2 channels
Channel positions           : Front: L R
Sampling rate               : 48.0 kHz
Frame rate                  : 46.875 FPS (1024 SPF)
Compression mode            : Lossy
Stream size                 : 41.6 MiB (15%)
Title                       : Stereo / Stereo
Language                    : English
Default                     : Yes
Alternate group             : 1
Menus                       : 3

Menu
ID                          : 3
Codec ID                    : text
Duration                    : 1 h 0 min
Language                    : English
Bit rate mode               : CBR
Menu For                    : 1,2
00:00:00.000                : Chapter 1
00:04:08.415                : Chapter 2
00:08:46.242                : Chapter 3
00:13:05.084                : Chapter 4
00:22:56.041                : Chapter 5
00:27:35.904                : Chapter 6
00:40:11.159                : Chapter 7
00:55:54.902                : Chapter 8

Yoga Warrior 365\Documentation\Warrior Tips - Poses\Chair.mp4
Format                      : MPEG-4
Format profile              : Base Media / Version 2
Codec ID                    : mp42 (isom/iso2/avc1/mp41)
File size                   : 12.9 MiB
Duration                    : 3 min 59 s
Overall bit rate mode       : Variable
Overall bit rate            : 453 kb/s
Writing application         : HandBrake 0.10.0 2014112200

Video
ID                          : 1
Format                      : AVC
Format/Info                 : Advanced Video Codec
Format profile              : Main@L4
Format settings             : CABAC / 4 Ref Frames
Format settings, CABAC      : Yes
Format settings, RefFrames  : 4 frames
Codec ID                    : avc1
Codec ID/Info               : Advanced Video Coding
Duration                    : 3 min 59 s
Bit rate                    : 349 kb/s
Width                       : 640 pixels
Height                      : 360 pixels
Display aspect ratio        : 16:9
Frame rate mode             : Variable
Frame rate                  : 23.976 (23976/1000) FPS
Minimum frame rate          : 19.982 FPS
Maximum frame rate          : 29.970 FPS
Color space                 : YUV
Chroma subsampling          : 4:2:0
Bit depth                   : 8 bits
Scan type                   : Progressive
Bits/(Pixel*Frame)          : 0.063
Stream size                 : 9.97 MiB (77%)
Writing library             : x264 core 142 r2479 dd79a61
Encoding settings           : cabac=1 / ref=1 / deblock=1:0:0 / analyse=0x1:0x111 / me=hex / subme=2 / psy=1 / psy_rd=1.00:0.00 / mixed_ref=0 / me_range=16 / chroma_me=1 / trellis=0 / 8x8dct=0 / cqm=0 / deadzone=21,11 / fast_pskip=1 / chroma_qp_offset=0 / threads=6 / lookahead_threads=2 / sliced_threads=0 / nr=0 / decimate=1 / interlaced=0 / bluray_compat=0 / constrained_intra=0 / bframes=3 / b_pyramid=2 / b_adapt=1 / b_bias=0 / direct=1 / weightb=1 / open_gop=0 / weightp=1 / keyint=240 / keyint_min=24 / scenecut=40 / intra_refresh=0 / rc_lookahead=10 / rc=crf / mbtree=1 / crf=20.0 / qcomp=0.60 / qpmin=0 / qpmax=69 / qpstep=4 / vbv_maxrate=20000 / vbv_bufsize=25000 / crf_max=0.0 / nal_hrd=none / filler=0 / ip_ratio=1.40 / aq=1:1.00
Color range                 : Limited
Color primaries             : BT.601 NTSC
Transfer characteristics    : BT.709
Matrix coefficients         : BT.601

Audio
ID                          : 2
Format                      : AAC
Format/Info                 : Advanced Audio Codec
Format profile              : LC
Codec ID                    : mp4a-40-2
Duration                    : 3 min 59 s
Bit rate mode               : Variable
Bit rate                    : 96.0 kb/s
Channel(s)                  : 2 channels
Channel positions           : Front: L R
Sampling rate               : 48.0 kHz
Frame rate                  : 46.875 FPS (1024 SPF)
Compression mode            : Lossy
Stream size                 : 2.74 MiB (21%)
Title                       : Stereo / Stereo
Language                    : English
Default                     : Yes
Alternate group             : 1

Скриншоты:



Время раздачи: с 19.00 до 22.00 (до появления первых 3-5 скачавших)

Постеры

Соцсети

 

Статистика

Автор: Солнышко
Добавлен: 05 ноя 2017, 21:23
Размер: 4.75 ГБ
Размер: 5 096 940 540 байт
Сидеров: 2
Личеров: 3
Скачали: 0
Здоровье: 66%
Раздающих: 100%
Скорость скачивания: 0 байт/сек
Скорость раздачи: 0 байт/сек
Последний сидер: 16 дней 9 часов 29 минут 7 секунд назад
Последний личер: 16 дней 9 часов 29 минут 7 секунд назад
Приватный: Нет (DHT включён)
Здоровье и спорт Скачать торрент
Скачать торрент
[ Размер 16.76 КБ / Просмотров 0 ]

Поделиться



  • Похожие торренты
    Ответы
    Просмотры
    Последнее сообщение

Вернуться в Здоровье и спорт