Сообщение

Cody Storey | Kettlebells DBK (2017) WEBRip [H.264] [EN]

Сообщение Солнышко » 05 ноя 2017, 21:23

Cody Storey | Kettlebells DBK (2017) WEBRip [H.264] [EN]

Автор (режиссер): Cody Storey
Производство: США / Dailyburn.com
Жанр: Фитнес с элементами гиревого спорта

Описание:
Эксперт Cody Storey отрывается от устаревших традиционных тренировок и использует гирю, чтобы лепить тело которое вы хотите. В комплексе шесть 50 минутных тренировок, рассчитанных на 3 месяца занятий, 6 дней в неделю.

Продолжительность: 05:11:32
Качество видео: WEBRip
Перевод: Отсутствует
Язык озвучки: Английский

Видео: AVC/H.264, 854х480, ~880 Kbps
Аудио: AAC, 2 ch, 101 Kbps, VBR
Код: Выделить всё
Cody Storey - Kettlebells DBK\Cody Storey - Kettlebells 1 DBK.mp4
Format                      : MPEG-4
Format profile              : Base Media
Codec ID                    : isom (isom/iso2/avc1/mp41)
File size                   : 363 MiB
Duration                    : 51 min 11 s
Overall bit rate mode       : Variable
Overall bit rate            : 990 kb/s
Writing application         : Lavf56.25.101

Video
ID                          : 1
Format                      : AVC
Format/Info                 : Advanced Video Codec
Format profile              : Baseline@L3
Format settings             : 3 Ref Frames
Format settings, CABAC      : No
Format settings, RefFrames  : 3 frames
Codec ID                    : avc1
Codec ID/Info               : Advanced Video Coding
Duration                    : 51 min 11 s
Bit rate                    : 880 kb/s
Width                       : 854 pixels
Height                      : 480 pixels
Display aspect ratio        : 16:9
Frame rate mode             : Constant
Frame rate                  : 23.976 (24000/1001) FPS
Color space                 : YUV
Chroma subsampling          : 4:2:0
Bit depth                   : 8 bits
Scan type                   : Progressive
Bits/(Pixel*Frame)          : 0.090
Stream size                 : 324 MiB (89%)
Writing library             : x264 core 142
Encoding settings           : cabac=0 / ref=3 / deblock=1:0:0 / analyse=0x1:0x111 / me=hex / subme=7 / psy=1 / psy_rd=1.00:0.00 / mixed_ref=1 / me_range=16 / chroma_me=1 / trellis=1 / 8x8dct=0 / cqm=0 / deadzone=21,11 / fast_pskip=1 / chroma_qp_offset=-2 / threads=6 / lookahead_threads=1 / sliced_threads=0 / nr=0 / decimate=1 / interlaced=0 / bluray_compat=0 / constrained_intra=0 / bframes=0 / weightp=0 / keyint=24 / keyint_min=2 / scenecut=40 / intra_refresh=0 / rc_lookahead=24 / rc=abr / mbtree=1 / bitrate=880 / ratetol=1.0 / qcomp=0.60 / qpmin=0 / qpmax=69 / qpstep=4 / ip_ratio=1.40 / aq=1:1.00

Audio
ID                          : 2
Format                      : AAC
Format/Info                 : Advanced Audio Codec
Format profile              : LC
Codec ID                    : mp4a-40-2
Duration                    : 51 min 11 s
Bit rate mode               : Variable
Bit rate                    : 101 kb/s
Maximum bit rate            : 160 kb/s
Channel(s)                  : 2 channels
Channel positions           : Front: L R
Sampling rate               : 44.1 kHz
Frame rate                  : 43.066 FPS (1024 SPF)
Compression mode            : Lossy
Stream size                 : 37.0 MiB (10%)
Default                     : Yes
Alternate group             : 1

Скриншоты:



Время раздачи: с 19.00 до 22.00 (до появления первых 3-5 скачавших)

Постеры

Соцсети

 

Статистика

Автор: Солнышко
Добавлен: 05 ноя 2017, 21:23
Размер: 2.15 ГБ
Размер: 2 307 743 344 байт
Сидеров: 2
Личеров: 0
Скачали: 0
Здоровье: 100%
Раздающих: 100%
Скорость скачивания: 0 байт/сек
Скорость раздачи: 0 байт/сек
Последний сидер: 4 дня 17 часов 21 минуту 55 секунд назад
Последний личер: Нет
Приватный: Нет (DHT включён)
Здоровье и спорт Скачать торрент
Скачать торрент
[ Размер 11.9 КБ / Просмотров 5 ]

Поделиться



  • Похожие торренты
    Ответы
    Просмотры
    Последнее сообщение

Вернуться в Здоровье и спорт