Сообщение

BJ Gaddour | 10 Minute Torchers Workout (2013) DVDRip [H.264] [EN]

Сообщение Солнышко » 05 ноя 2017, 21:23

BJ Gaddour | 10 Minute Torchers Workout (2013) DVDRip [H.264] [EN]

Автор (режиссер): BJ Gaddour
Производство: США
Жанр: Фитнес

Описание:
Представляем вам 10-MINUTE TORCHERS, революционную систему для фитнеса.
Единственное оборудование, в котором вы нуждаетесь, это ваше тело и только одна пара гантелей - ничего больше! Чтобы создать эту программу из 3-DVD, эксперт по фитнесу BJ Gaddour разработал 12 совершенно новых передовых процедур - то, что мы называем TORCHERS - что позволяет сжечь жир на вашем теле, с помощью тренировки с быстрым метаболическим сопротивлением. Каждый TORCHER занимает всего 10 минут. Вы можете сделать только один - для быстрого повышения метаболизма - или объединить два, три, четыре или даже больше TORCHERS для серьезной интенсивной тренировки. Чем больше TORCHERS вы накапливаете, тем больше жира вы сжигаете!
В комплекте имеется расписание тренировок.

Продолжительность: 02:04:45
Качество видео: DVDRip
Перевод: Отсутствует
Язык озвучки: Английский

Видео: AVC/H.264, 624х358, ~695 Kbps
Аудио: AAC, 2 ch, 96 Kbps, VBR
Код: Выделить всё
10 Minute Torchers\Arms and Abs Assault.mp4
Format                      : MPEG-4
Format profile              : Base Media / Version 2
Codec ID                    : mp42 (isom/iso2/avc1/mp41)
File size                   : 60.2 MiB
Duration                    : 10 min 33 s
Overall bit rate mode       : Variable
Overall bit rate            : 798 kb/s
Writing application         : HandBrake 0.10.0 2014112200

Video
ID                          : 1
Format                      : AVC
Format/Info                 : Advanced Video Codec
Format profile              : Main@L4
Format settings             : CABAC / 4 Ref Frames
Format settings, CABAC      : Yes
Format settings, RefFrames  : 4 frames
Codec ID                    : avc1
Codec ID/Info               : Advanced Video Coding
Duration                    : 10 min 33 s
Bit rate                    : 695 kb/s
Width                       : 624 pixels
Height                      : 358 pixels
Display aspect ratio        : 16:9
Frame rate mode             : Variable
Frame rate                  : 29.970 (29970/1000) FPS
Minimum frame rate          : 14.985 FPS
Maximum frame rate          : 29.970 FPS
Color space                 : YUV
Chroma subsampling          : 4:2:0
Bit depth                   : 8 bits
Scan type                   : Progressive
Bits/(Pixel*Frame)          : 0.104
Stream size                 : 52.4 MiB (87%)
Writing library             : x264 core 142 r2479 dd79a61
Encoding settings           : cabac=1 / ref=1 / deblock=1:0:0 / analyse=0x1:0x111 / me=hex / subme=2 / psy=1 / psy_rd=1.00:0.00 / mixed_ref=0 / me_range=16 / chroma_me=1 / trellis=0 / 8x8dct=0 / cqm=0 / deadzone=21,11 / fast_pskip=1 / chroma_qp_offset=0 / threads=6 / lookahead_threads=2 / sliced_threads=0 / nr=0 / decimate=1 / interlaced=0 / bluray_compat=0 / constrained_intra=0 / bframes=3 / b_pyramid=2 / b_adapt=1 / b_bias=0 / direct=1 / weightb=1 / open_gop=0 / weightp=1 / keyint=300 / keyint_min=30 / scenecut=40 / intra_refresh=0 / rc_lookahead=10 / rc=crf / mbtree=1 / crf=20.0 / qcomp=0.60 / qpmin=0 / qpmax=69 / qpstep=4 / vbv_maxrate=20000 / vbv_bufsize=25000 / crf_max=0.0 / nal_hrd=none / filler=0 / ip_ratio=1.40 / aq=1:1.00
Color range                 : Limited
Color primaries             : BT.601 NTSC
Transfer characteristics    : BT.709
Matrix coefficients         : BT.601
Menus                       : 3

Audio
ID                          : 2
Format                      : AAC
Format/Info                 : Advanced Audio Codec
Format profile              : LC
Codec ID                    : mp4a-40-2
Duration                    : 10 min 32 s
Bit rate mode               : Variable
Bit rate                    : 96.0 kb/s
Channel(s)                  : 2 channels
Channel positions           : Front: L R
Sampling rate               : 48.0 kHz
Frame rate                  : 46.875 FPS (1024 SPF)
Compression mode            : Lossy
Stream size                 : 7.27 MiB (12%)
Title                       : Stereo / Stereo
Language                    : English
Default                     : Yes
Alternate group             : 1
Menus                       : 3

Menu
ID                          : 3
Codec ID                    : text
Duration                    : 10 min 33 s
Language                    : English
Menu For                    : 1,2
00:00:00.000                : Chapter 1

Скриншоты:



Время раздачи: с 17.00 до 22.00 (до появления первых 3-5 скачавших)

Постеры

Соцсети

 

Статистика

Автор: Солнышко
Добавлен: 05 ноя 2017, 21:23
Размер: 785.03 МБ
Размер: 823 161 422 байт
Сидеров: 3
Личеров: 3
Скачали: 0
Здоровье: 100%
Раздающих: 100%
Скорость скачивания: 0 байт/сек
Скорость раздачи: 0 байт/сек
Последний сидер: 3 дня 11 часов 57 минут 28 секунд назад
Последний личер: 3 дня 11 часов 57 минут 28 секунд назад
Приватный: Нет (DHT включён)
Здоровье и спорт Скачать торрент
Скачать торрент
[ Размер 16.75 КБ / Просмотров 2 ]

Поделиться



  • Похожие торренты
    Ответы
    Просмотры
    Последнее сообщение

Вернуться в Здоровье и спорт