Сообщение

Beachbody Yoga Studio | 5-Day Yoga Challenge (2016) HDTVRip [H.264/720p-LQ] [EN]

Сообщение Солнышко » 05 ноя 2017, 21:23

Beachbody Yoga Studio | 5-Day Yoga Challenge (2016) HDTVRip [H.264/720p-LQ] [EN]

Автор (режиссер): Beachbody Yoga Studio
Производство: США
Жанр: Йога

Описание:
Углубите свою практику йоги с совершенно новым 5-дневным йога-комплексом от Beachbody под руководством всемирно известного инструктора Caley Alyssa. В программу вошло 5 тренировок для среднего уровня подготовки, каждая из которых направлена на конкретную зону тела.
Вы будете одновременно работать над улучшением фигуры, укреплением тела, развитием силы, гибкости и баланса. Занимайтесь в течение недели, можно повторить программу в несколько циклов.

Продолжительность: 02:41:23
Качество видео: HDTVRip
Перевод: Отсутствует
Язык озвучки: Английский

Видео: AVC/H.264, 1280х720, ~1980 Kbps
Аудио: AAC, 2 ch, 152 Kbps, VBR
Код: Выделить всё
5-Day Yoga Challenge (Beachbody Yoga Studio)\Caley Alyssa - Day 3 Core. 5-Day Yoga Challenge (Beachbody Yoga Studio)  Йога с акцентом на кор.mp4
Format                      : MPEG-4
Format profile              : Base Media
Codec ID                    : isom (isom/iso2/avc1/mp41)
File size                   : 533 MiB
Duration                    : 34 min 47 s
Overall bit rate mode       : Variable
Overall bit rate            : 2 140 kb/s
Writing application         : Lavf56.25.101

Video
ID                          : 1
Format                      : AVC
Format/Info                 : Advanced Video Codec
Format profile              :
Format settings             : CABAC / 4 Ref Frames
Format settings, CABAC      : Yes
Format settings, RefFrames  : 4 frames
Codec ID                    : avc1
Codec ID/Info               : Advanced Video Coding
Duration                    : 34 min 47 s
Bit rate                    : 1 980 kb/s
Width                       : 1 280 pixels
Height                      : 720 pixels
Display aspect ratio        : 16:9
Frame rate mode             : Constant
Frame rate                  : 29.970 (30000/1001) FPS
Color space                 : YUV
Chroma subsampling          : 4:2:0
Bit depth                   : 8 bits
Scan type                   : Progressive
Bits/(Pixel*Frame)          : 0.072
Stream size                 : 493 MiB (92%)
Writing library             : x264 core 142
Encoding settings           : cabac=1 / ref=3 / deblock=1:0:0 / analyse=0x3:0x113 / me=hex / subme=7 / psy=1 / psy_rd=1.00:0.00 / mixed_ref=1 / me_range=16 / chroma_me=1 / trellis=1 / 8x8dct=1 / cqm=0 / deadzone=21,11 / fast_pskip=1 / chroma_qp_offset=-2 / threads=6 / lookahead_threads=1 / sliced_threads=0 / nr=0 / decimate=1 / interlaced=0 / bluray_compat=0 / constrained_intra=0 / bframes=3 / b_pyramid=2 / b_adapt=1 / b_bias=0 / direct=1 / weightb=1 / open_gop=0 / weightp=2 / keyint=30 / keyint_min=3 / scenecut=40 / intra_refresh=0 / rc_lookahead=30 / rc=2pass / mbtree=1 / bitrate=1980 / ratetol=1.0 / qcomp=0.60 / qpmin=0 / qpmax=69 / qpstep=4 / cplxblur=20.0 / qblur=0.5 / ip_ratio=1.40 / aq=1:1.00

Audio
ID                          : 2
Format                      : AAC
Format/Info                 : Advanced Audio Codec
Format profile              : LC
Codec ID                    : mp4a-40-2
Duration                    : 34 min 47 s
Duration_LastFrame          : -3 ms
Bit rate mode               : Variable
Bit rate                    : 152 kb/s
Maximum bit rate            : 192 kb/s
Channel(s)                  : 2 channels
Channel positions           : Front: L R
Sampling rate               : 44.1 kHz
Frame rate                  : 43.066 FPS (1024 SPF)
Compression mode            : Lossy
Stream size                 : 37.8 MiB (7%)
Default                     : Yes
Alternate group             : 1
Day 1: Upper Body (верхняя часть тела) (00:14:23)
Day 2: Lower Body (нижняя часть тела) (00:27:17)
Day 3: Core (кор) (00:26:27)
Day 4: Cardio (кардио) (00:34:47)
Day 5: Total Body (все тело) (00:29:44)
+бонус: для раскрытия плечевого пояса (00:14:23)

Скриншоты:



Время раздачи: с 17.00 до 22.00 (до появления первых 3-5 скачавших)

Постеры

Соцсети

 

Статистика

Автор: Солнышко
Добавлен: 05 ноя 2017, 21:23
Размер: 2.41 ГБ
Размер: 2 590 832 846 байт
Сидеров: 3
Личеров: 1
Скачали: 0
Здоровье: 100%
Раздающих: 100%
Скорость скачивания: 0 байт/сек
Скорость раздачи: 0 байт/сек
Последний сидер: 3 часа 54 минуты 48 секунд назад
Последний личер: 5 месяцев 16 дней 8 часов 5 минут 49 секунд назад
Приватный: Нет (DHT включён)
Здоровье и спорт Скачать торрент
Скачать торрент
[ Размер 13.82 КБ / Просмотров 9 ]

Поделиться



  • Похожие торренты
    Ответы
    Просмотры
    Последнее сообщение

Вернуться в Здоровье и спорт