Сообщение

Tony Horton | Double Time (2017) HDTVRip [H.264/720p-LQ] [EN]

Сообщение Солнышко » 05 ноя 2017, 21:23

Tony Horton | Double Time (2017) HDTVRip [H.264/720p-LQ] [EN]

Автор (режиссер): Tony Horton
Производство: США / Beachbody.com
Жанр: Фитнес

Описание:
Double Time - первый фитнес-комплекс Тони Хортона, который предназначен для занятий в паре.
Вас ждут ежедневные тренировки в течение 30 дней, которые вы можете выполнять с супругом или супругой, другом или подругой, с ребенком или родителем. В программу вошло 8 эффективных тренировок, которые больше похожи на игру, чем работу!
Программа подходит для любого уровня подготовки, возраст - от 8 лет и выше.
Зачем работать с партнером? Исследования показывают, что у вас больше шансов преуспеть в фитнесе, когда вы работаете с другим человеком. Вы будете поощрять и мотивировать друг друга, да и тренировки пройдут гораздо веселее и интереснее.
Для занятий вам понадобится медбол или можно использовать альтернативный инвентарь.

Продолжительность: 03:26:58
Качество видео: HDTVRip
Перевод: Отсутствует
Язык озвучки: Английский

Видео: AVC/H.264, 1280х720, ~1980 Kbps
Аудио: AAC, 2 ch, 152 Kbps, VBR
Код: Выделить всё
Tony Horton - Double Time\Tony Horton - 1. Game On!. Double Time.mp4
Format                      : MPEG-4
Format profile              : Base Media
Codec ID                    : isom (isom/iso2/avc1/mp41)
File size                   : 347 MiB
Duration                    : 22 min 40 s
Overall bit rate mode       : Variable
Overall bit rate            : 2 140 kb/s
Writing application         : Lavf56.25.101

Video
ID                          : 1
Format                      : AVC
Format/Info                 : Advanced Video Codec
Format profile              :
Format settings             : CABAC / 4 Ref Frames
Format settings, CABAC      : Yes
Format settings, RefFrames  : 4 frames
Codec ID                    : avc1
Codec ID/Info               : Advanced Video Coding
Duration                    : 22 min 40 s
Bit rate                    : 1 980 kb/s
Width                       : 1 280 pixels
Height                      : 720 pixels
Display aspect ratio        : 16:9
Frame rate mode             : Constant
Frame rate                  : 29.970 (30000/1001) FPS
Color space                 : YUV
Chroma subsampling          : 4:2:0
Bit depth                   : 8 bits
Scan type                   : Progressive
Bits/(Pixel*Frame)          : 0.072
Stream size                 : 321 MiB (92%)
Writing library             : x264 core 142
Encoding settings           : cabac=1 / ref=3 / deblock=1:0:0 / analyse=0x3:0x113 / me=hex / subme=7 / psy=1 / psy_rd=1.00:0.00 / mixed_ref=1 / me_range=16 / chroma_me=1 / trellis=1 / 8x8dct=1 / cqm=0 / deadzone=21,11 / fast_pskip=1 / chroma_qp_offset=-2 / threads=6 / lookahead_threads=1 / sliced_threads=0 / nr=0 / decimate=1 / interlaced=0 / bluray_compat=0 / constrained_intra=0 / bframes=3 / b_pyramid=2 / b_adapt=1 / b_bias=0 / direct=1 / weightb=1 / open_gop=0 / weightp=2 / keyint=30 / keyint_min=3 / scenecut=40 / intra_refresh=0 / rc_lookahead=30 / rc=2pass / mbtree=1 / bitrate=1980 / ratetol=1.0 / qcomp=0.60 / qpmin=0 / qpmax=69 / qpstep=4 / cplxblur=20.0 / qblur=0.5 / ip_ratio=1.40 / aq=1:1.00

Audio
ID                          : 2
Format                      : AAC
Format/Info                 : Advanced Audio Codec
Format profile              : LC
Codec ID                    : mp4a-40-2
Duration                    : 22 min 40 s
Duration_LastFrame          : -20 ms
Bit rate mode               : Variable
Bit rate                    : 152 kb/s
Maximum bit rate            : 192 kb/s
Channel(s)                  : 2 channels
Channel positions           : Front: L R
Sampling rate               : 44.1 kHz
Frame rate                  : 43.066 FPS (1024 SPF)
Compression mode            : Lossy
Stream size                 : 24.6 MiB (7%)
Default                     : Yes
Alternate group             : 1
Tony Horton - 1. Game On!. Double Time (00:22:40).
Tony Horton - 2. Dynamic Doubles. Double Time (00:23:27).
Tony Horton - 3. Double Up. Double Time (00:34:36).
Tony Horton - 4. BOD Squad. Double Time (00:30:37).
Tony Horton - 5. Funapalooza. Double Time (00:35:07).
Tony Horton - 6. Power Partners. Double Time (00:35:37).
Tony Horton - 7. Recess. Double Time (00:12:27).
Tony Horton - 8. Abracadabra. Double Time (00:12:27).
30-Day Calendar - календарь тренировок для взрослых (jpg).
Kids Calendar - календарь тренировок для детей (jpg).
Tony Horton Quick Start Double Time - быстрый старт (pdf).
Tony Horton Eating Guide Double Time - руководство по питанию (pdf).
Tony Horton Recipes Double Time - рецепты питания (pdf).

Скриншоты:



Время раздачи: с 17.00 до 22.00 (до появления первых 3-5 скачавших)

Постеры

Соцсети

 

Статистика

Автор: Солнышко
Добавлен: 05 ноя 2017, 21:23
Размер: 3.12 ГБ
Размер: 3 354 205 608 байт
Сидеров: 1
Личеров: 0
Скачали: 0
Здоровье: 100%
Раздающих: 100%
Скорость скачивания: 0 байт/сек
Скорость раздачи: 0 байт/сек
Последний сидер: 7 дней 13 часов 51 минуту 16 секунд назад
Последний личер: Нет
Приватный: Нет (DHT включён)
Здоровье и спорт Скачать торрент
Скачать торрент
[ Размер 17.27 КБ / Просмотров 19 ]

Поделиться



  • Похожие торренты
    Ответы
    Просмотры
    Последнее сообщение

Вернуться в Здоровье и спорт