Сообщение

Leandro Carvalho | Brazil Butt Lift Master Series (2015) HDTVRip [H.264/720p-LQ] [EN]

Сообщение Солнышко » 05 ноя 2017, 22:23

Leandro Carvalho | Brazil Butt Lift Master Series (2015) HDTVRip [H.264/720p-LQ] [EN]

Автор (режиссер): Leandro Carvalho
Производство: США / BeachBody.com
Жанр: Фитнес, Танцевальные тренировки

Описание:
Brazil Butt Lift Master Series – это 30-дневный комплекс, который позволит вам максимально полно и качественно тренировать ягодицы и создавать округлые подтянутые формы.

Продолжительность: 02:01:48
Качество видео: HDTVRip
Перевод: Отсутствует
Язык озвучки: Английский

Видео: AVC/H.264, 1280x720, ~2 372 Kbps
Аудио: AAC, 2 ch, 127 Kbps, VBR
Код: Выделить всё
Brazil Butt Lift Master Series\Cardio Carnivale.mp4
Format                      : MPEG-4
Format profile              : Base Media
Codec ID                    : isom (isom/iso2/avc1/mp41)
File size                   : 515 MiB
Duration                    : 28 min 51 s
Overall bit rate mode       : Variable
Overall bit rate            : 2 494 kb/s
Writing application         : Lavf56.30.100

Video
ID                          : 1
Format                      : AVC
Format/Info                 : Advanced Video Codec
Format profile              :
Format settings, CABAC      : Yes
Format settings, ReFrames   : 2 frames
Codec ID                    : avc1
Codec ID/Info               : Advanced Video Coding
Duration                    : 28 min 51 s
Bit rate                    : 2 372 kb/s
Width                       : 1 280 pixels
Height                      : 720 pixels
Display aspect ratio        : 16:9
Frame rate mode             : Variable
Frame rate                  : 29.970 (30000/1001) FPS
Minimum frame rate          : 29.960 FPS
Maximum frame rate          : 30.000 FPS
Original frame rate         : 30.000 FPS
Color space                 : YUV
Chroma subsampling          : 4:2:0
Bit depth                   : 8 bits
Scan type                   : Progressive
Bits/(Pixel*Frame)          : 0.086
Stream size                 : 487 MiB (95%)
Writing library             : x264 core 148 r2579M 73ae2d1
Encoding settings           : cabac=1 / ref=2 / deblock=1:0:0 / analyse=0x1:0x111 / me=hex / subme=2 / psy=1 / psy_rd=1.00:0.00 / mixed_ref=0 / me_range=16 / chroma_me=1 / trellis=0 / 8x8dct=0 / cqm=0 / deadzone=21,11 / fast_pskip=1 / chroma_qp_offset=0 / threads=1 / lookahead_threads=1 / sliced_threads=0 / nr=250 / decimate=1 / interlaced=0 / bluray_compat=0 / stitchable=1 / constrained_intra=0 / bframes=0 / weightp=1 / keyint=250 / keyint_min=25 / scenecut=40 / intra_refresh=0 / rc_lookahead=10 / rc=2pass / mbtree=1 / bitrate=2372 / ratetol=1.0 / qcomp=0.60 / qpmin=5 / qpmax=69 / qpstep=4 / cplxblur=20.0 / qblur=0.5 / ip_ratio=1.40 / aq=1:1.00

Audio
ID                          : 2
Format                      : AAC
Format/Info                 : Advanced Audio Codec
Format profile              : HE-AAC / LC
Codec ID                    : 40
Duration                    : 28 min 51 s
Bit rate mode               : Variable
Bit rate                    : 127 kb/s
Maximum bit rate            : 128 kb/s
Channel(s)                  : 2 channels
Channel positions           : Front: L R
Sampling rate               : 48.0 kHz / 24.0 kHz
Frame rate                  : 23.438 FPS (1024 spf)
Compression mode            : Lossy
Stream size                 : 26.1 MiB (5%)
Default                     : Yes
Alternate group             : 1
В комплекс Brazil Butt Lift Master Series вошли следующие тренировки:

Higher & Tighter (30 минут). Невероятно эффективная тренировка с фитболом для мышц ягодиц и нижней части тела в целом. Леандро Карвальо предлагает супер-прорабатывающие упражнения для вашего бум-бум. Утяжелители для ног иметь желательно, но не обязательно.
Ipanema Booty (35 минут). Программа названа в честь знаменитого пляжа Рио-де-Жанейро. Это функциональная тренировка с гантелями и утяжелителями для ног, которая поможет вам создать упругие ягодицы и подтянутые бедра. Гантели можно взять большего веса, девушки в программе выполняют упражнения с гантелями ~6,5 кг.
Bikini Body (26 минут). Видео разработано для фантастической работы мышц всего тела: живота, груди, плеч, рук, бедер, ягодиц. Вы будете выполнять качественные упражнения с фитболом и гантелями.
Bonus: Cardio Carnivale (28 минут). Кардио-тренировка в стиле бразильских танцев для сжигания калорий и жира. Не входит в календарь, но станет отличным дополнением любого расписания. Инвентарь не нужен.

Календарь для Brazil Butt Lift Master Series (jpg).

GoodLooker.ru - сайт о фитнесе. Читайте подробнее: http://goodlooker.ru/brazil-but-lift-leandro-carvalho.html

Скриншоты:



Время раздачи: с 07.00 до 22.00 (до появления первых 3-5 скачавших)

Постеры

Соцсети

 

Статистика

Автор: Солнышко
Добавлен: 05 ноя 2017, 22:23
Размер: 2.12 ГБ
Размер: 2 278 029 079 байт
Сидеров: 1
Личеров: 0
Скачали: 0
Здоровье: 100%
Раздающих: 100%
Скорость скачивания: 0 байт/сек
Скорость раздачи: 0 байт/сек
Последний сидер: 1 месяц 4 дня 17 часов 38 минут 29 секунд назад
Последний личер: Нет
Приватный: Нет (DHT включён)
Здоровье и спорт Скачать торрент
Скачать торрент
[ Размер 11.68 КБ / Просмотров 2 ]

Поделиться



  • Похожие торренты
    Ответы
    Просмотры
    Последнее сообщение

Вернуться в Здоровье и спорт