Сообщение

Ido Portal | The Floreio Project (2014) WEBRip [H.264] [EN]

Сообщение Солнышко » 05 ноя 2017, 22:23

Ido Portal | The Floreio Project (2014) WEBRip [H.264] [EN]

Автор (режиссер): Ido Portal
Производство: Israel
Жанр: Гимнастика

Описание:
Этот проект - моя попытка организовать видео, которые Идо Портал создал. Когда я впервые начал разбираться в видео и блогах, я обнаружил, что информация была в беспорядке. В моем стремлении понять содержание, которое у него есть, чтобы я мог практиковать его сам, я создал эту подборку. Я надеюсь, что это поможет вам ДВИГАТЬСЯ. Antranik

Продолжительность: 03:12:29
Качество видео: WEBRip
Перевод: Отсутствует
Язык озвучки: Английский

Видео: AVC/H.264, 480x360, ~239 Kbps
Аудио: AAC, 2 ch, 96 Kbps
Код: Выделить всё
General
Complete name : Role into QDR Rotational Push Ups (Advanced).mp4
Format : MPEG-4
Format profile : Base Media / Version 2
Codec ID : mp42 (isom/mp42)
File size : 2.06 MiB
Duration : 51 s 245 ms
Overall bit rate mode : Variable
Overall bit rate : 338 kb/s
Encoded date : UTC 2014-08-05 19:32:24
Tagged date : UTC 2014-08-05 19:32:24
gsst : 0
gstd : 51408
gssd : B4A7DDA41MH1412839249439091
gshh : r1---sn-4g57kues.googlevideo.com

Video
ID : 1
Format : AVC
Format/Info : Advanced Video Codec
Format profile :
Format settings, CABAC : No
Format settings, RefFrames : 1 frame
Codec ID : avc1
Codec ID/Info : Advanced Video Coding
Duration : 51 s 240 ms
Bit rate : 239 kb/s
Maximum bit rate : 725 kb/s
Width : 480 pixels
Height : 360 pixels
Display aspect ratio : 4:3
Frame rate mode : Constant
Frame rate : 25.000 FPS
Color space : YUV
Chroma subsampling : 4:2:0
Bit depth : 8 bits
Scan type : Progressive
Bits/(Pixel*Frame) : 0.055
Stream size : 1.46 MiB (71%)
Tagged date : UTC 2014-08-05 19:32:25

Audio
ID : 2
Format : AAC
Format/Info : Advanced Audio Codec
Format profile : LC
Codec ID : 40
Duration : 51 s 245 ms
Bit rate mode : Variable
Bit rate : 96.0 kb/s
Maximum bit rate : 105 kb/s
Channel(s) : 2 channels
Channel positions : Front: L R
Sampling rate : 44.1 kHz
Frame rate : 43.066 FPS (1024 SPF)
Compression mode : Lossy
Stream size : 601 KiB (28%)
Title : IsoMedia File Produced by Google, 5-11-2011
Encoded date : UTC 2014-08-05 19:32:25
Tagged date : UTC 2014-08-05 19:32:25

General
Complete name : E:\sport\4 Movement Closed System Flow Advanced.mp4
Format : MPEG-4
Format profile : Base Media / Version 2
Codec ID : mp42 (isom/mp42)
File size : 4.02 MiB
Duration : 1 min 35 s
Overall bit rate mode : Variable
Overall bit rate : 352 kb/s
Encoded date : UTC 2014-03-01 03:17:34
Tagged date : UTC 2014-03-01 03:17:34
gsst : 0
gstd : 95851
gssd : B4A7DDA24MH1412797704222705
gshh : r4---sn-4g57kuel.googlevideo.com

Video
ID : 1
Format : AVC
Format/Info : Advanced Video Codec
Format profile :
Format settings, CABAC : No
Format settings, RefFrames : 1 frame
Codec ID : avc1
Codec ID/Info : Advanced Video Coding
Duration : 1 min 35 s
Bit rate : 253 kb/s
Maximum bit rate : 849 kb/s
Width : 480 pixels
Height : 360 pixels
Display aspect ratio : 4:3
Frame rate mode : Constant
Frame rate : 25.000 FPS
Color space : YUV
Chroma subsampling : 4:2:0
Bit depth : 8 bits
Scan type : Progressive
Bits/(Pixel*Frame) : 0.059
Stream size : 2.89 MiB (72%)
Tagged date : UTC 2014-03-01 03:17:36

Audio
ID : 2
Format : AAC
Format/Info : Advanced Audio Codec
Format profile : LC
Codec ID : 40
Duration : 1 min 35 s
Bit rate mode : Variable
Bit rate : 96.0 kb/s
Maximum bit rate : 103 kb/s
Channel(s) : 2 channels
Channel positions : Front: L R
Sampling rate : 44.1 kHz
Frame rate : 43.066 FPS (1024 SPF)
Compression mode : Lossy
Stream size : 1.10 MiB (27%)
Title : IsoMedia File Produced by Google, 5-11-2011
Encoded date : UTC 2014-03-01 03:17:35
Tagged date : UTC 2014-03-01 03:17:36

General
Complete name : E:\sport\4 Movement Closed System Flow Advanced.mp4
Format : MPEG-4
Format profile : Base Media / Version 2
Codec ID : mp42 (isom/mp42)
File size : 4.02 MiB
Duration : 1 min 35 s
Overall bit rate mode : Variable
Overall bit rate : 352 kb/s
Encoded date : UTC 2014-03-01 03:17:34
Tagged date : UTC 2014-03-01 03:17:34
gsst : 0
gstd : 95851
gssd : B4A7DDA24MH1412797704222705
gshh : r4---sn-4g57kuel.googlevideo.com

Video
ID : 1
Format : AVC
Format/Info : Advanced Video Codec
Format profile :
Format settings, CABAC : No
Format settings, RefFrames : 1 frame
Codec ID : avc1
Codec ID/Info : Advanced Video Coding
Duration : 1 min 35 s
Bit rate : 253 kb/s
Maximum bit rate : 849 kb/s
Width : 480 pixels
Height : 360 pixels
Display aspect ratio : 4:3
Frame rate mode : Constant
Frame rate : 25.000 FPS
Color space : YUV
Chroma subsampling : 4:2:0
Bit depth : 8 bits
Scan type : Progressive
Bits/(Pixel*Frame) : 0.059
Stream size : 2.89 MiB (72%)
Tagged date : UTC 2014-03-01 03:17:36

Audio
ID : 2
Format : AAC
Format/Info : Advanced Audio Codec
Format profile : LC
Codec ID : 40
Duration : 1 min 35 s
Bit rate mode : Variable
Bit rate : 96.0 kb/s
Maximum bit rate : 103 kb/s
Channel(s) : 2 channels
Channel positions : Front: L R
Sampling rate : 44.1 kHz
Frame rate : 43.066 FPS (1024 SPF)
Compression mode : Lossy
Stream size : 1.10 MiB (27%)
Title : IsoMedia File Produced by Google, 5-11-2011
Encoded date : UTC 2014-03-01 03:17:35
Tagged date : UTC 2014-03-01 03:17:36

Скриншоты:



Время раздачи: 24/7 (круглосуточно) (до появления первых 3-5 скачавших)

Постеры

Соцсети

 

Статистика

Автор: Солнышко
Добавлен: 05 ноя 2017, 22:23
Размер: 594.43 МБ
Размер: 623 309 651 байт
Сидеров: 1
Личеров: 0
Скачали: 1
Здоровье: 100%
Раздающих: 100%
Скорость скачивания: 0 байт/сек
Скорость раздачи: 0 байт/сек
Последний сидер: 4 дня 19 часов 25 минут 16 секунд назад
Последний личер: 8 месяцев 17 дней 13 часов 23 минуты 2 секунды назад
Приватный: Нет (DHT включён)
Здоровье и спорт Скачать торрент
Скачать торрент
[ Размер 64.26 КБ / Просмотров 4 ]

Поделиться



  • Похожие торренты
    Ответы
    Просмотры
    Последнее сообщение

Вернуться в Здоровье и спорт