Сообщение

Папазян Тигран | 1000$ в месяц на AudioJungle (2015) PCRec

Сообщение Солнышко » 05 ноя 2017, 22:46

Папазян Тигран | 1000$ в месяц на AudioJungle (2015) PCRec

Автор (режиссер): Папазян Тигран
Жанр: Бизнес, аудиосток

Описание:
- Почему AudioJungle. Почему фриланс. Почему сейчас.
- Обзор элементов интерфейса сайта.
- Регистрация нового аккаунта.
- Оформление профиля. Встречают по одежке.
- Загрузка треков. Как это происходит. Когда и сколько треков заливать. Как называть.
- Тренды. Почему я пишу дарк эмбиент и не зарабатываю? Какая музыка продаётся сейчас и какая музыка продаётся всегда.
- Стратегии работы на AudioJungle. Их преимущества и недостатки.
- Обзор популярных библиотек и VST для написания стоковой музыки.
- Хочу звук как у топа. Буду тыкать носом в популярные пресеты и их аналоги.
- Общие законы сведения стоковой музыки или почему мастеринг переоценён.
- Немного философии или как не потерять себя, начав работу со стоками.
- Как выводить деньги.

Продолжительность: 06:39:06
Качество видео: PCRec

Видео: ДРУГОЙ, 1280-1920x720-1080, ~2200-2912 Kbps
Аудио: AAC, 2 ch, 128-320 Kbps
Код: Выделить всё
Complete name                  : C:\AudioJungle 1000$\webinar_part_1.mp4
Format                         : MPEG-4
Format profile                 : Base Media
Codec ID                       : isom (isom/iso2/mp41)
File size                      : 3.97 GiB
Duration                       : 2 h 55 min
Overall bit rate mode          : Variable
Overall bit rate               : 3 239 kb/s
Writing application            : Lavf56.1.100

Video
ID                             : 1
Format                         : MPEG-4 Visual
Format profile                 : Simple@L1
Format settings, BVOP          : No
Format settings, QPel          : No
Format settings, GMC           : No warppoints
Format settings, Matrix        : Default (H.263)
Codec ID                       : 20
Duration                       : 2 h 55 min
Bit rate mode                  : Variable
Bit rate                       : 2 912 kb/s
Maximum bit rate               : 9 554 kb/s
Width                          : 1 280 pixels
Height                         : 720 pixels
Display aspect ratio           : 16:9
Frame rate mode                : Constant
Frame rate                     : 30.000 FPS
Color space                    : YUV
Chroma subsampling             : 4:2:0
Bit depth                      : 8 bits
Scan type                      : Progressive
Compression mode               : Lossy
Bits/(Pixel*Frame)             : 0.105
Stream size                    : 3.57 GiB (90%)
Writing library                : Lavc56.0.101

Audio
ID                             : 2
Format                         : AAC
Format/Info                    : Advanced Audio Codec
Format profile                 : LC
Codec ID                       : 40
Duration                       : 2 h 55 min
Duration_LastFrame             : -1 ms
Bit rate mode                  : Constant
Bit rate                       : 320 kb/s
Channel(s)                     : 2 channels
Channel positions              : Front: L R
Sampling rate                  : 44.1 kHz
Frame rate                     : 43.066 FPS (1024 spf)
Compression mode               : Lossy
Stream size                    : 401 MiB (10%)
Default                        : Yes
Alternate group                : 1

General
Complete name                  : C:\AudioJungle 1000$\webinar_part_2.flv
Format                         : Flash Video
File size                      : 3.00 GiB
Duration                       : 3 h 4 min
Overall bit rate               : 2 330 kb/s
Writing application            : Open Broadcaster Software v0.64b
fileSize                       : 3216894385.000

Video
Duration                       : 3 h 4 min
Bit rate                       : 2 200 kb/s
Width                          : 1 920 pixels
Height                         : 1 080 pixels
Display aspect ratio           : 16:9
Frame rate mode                : Constant
Frame rate                     : 30.000 FPS
Bits/(Pixel*Frame)             : 0.035
Stream size                    : 2.83 GiB (94%)

Audio
Format                         : AAC
Format/Info                    : Advanced Audio Codec
Format profile                 : LC
Codec ID                       : 10
Duration                       : 3 h 4 min
Bit rate                       : 128 kb/s
Channel(s)                     : 2 channels
Channel positions              : Front: L R
Sampling rate                  : 48.0 kHz
Frame rate                     : 46.875 FPS (1024 spf)
Compression mode               : Lossy
Stream size                    : 169 MiB (5%)

General
Complete name                  : C:\AudioJungle 1000$\webinar_part_3.flv
Format                         : Flash Video
File size                      : 664 MiB
Duration                       : 39 min 41 s
Overall bit rate               : 2 339 kb/s
Writing application            : Open Broadcaster Software v0.64b
fileSize                       : 696273499.000

Video
Duration                       : 39 min 41 s
Bit rate                       : 2 200 kb/s
Width                          : 1 920 pixels
Height                         : 1 080 pixels
Display aspect ratio           : 16:9
Frame rate mode                : Constant
Frame rate                     : 30.000 FPS
Bits/(Pixel*Frame)             : 0.035
Stream size                    : 624 MiB (94%)

Audio
Format                         : AAC
Format/Info                    : Advanced Audio Codec
Format profile                 : LC
Codec ID                       : 10
Duration                       : 39 min 41 s
Bit rate                       : 128 kb/s
Channel(s)                     : 2 channels
Channel positions              : Front: L R
Sampling rate                  : 48.0 kHz
Frame rate                     : 46.875 FPS (1024 spf)
Compression mode               : Lossy
Stream size                    : 36.3 MiB (5%)

Скриншоты:



Время раздачи: Пн-Пт с 18:00 до 22:00 (до появления первых 3-5 скачавших)

Постеры

Соцсети

 

Статистика

Автор: Солнышко
Добавлен: 05 ноя 2017, 22:46
Размер: 7.61 ГБ
Размер: 8 171 774 459 байт
Сидеров: 8
Личеров: 1
Скачали: 0
Здоровье: 100%
Раздающих: 100%
Скорость скачивания: 0 байт/сек
Скорость раздачи: 0 байт/сек
Последний сидер: 17 часов 45 минут 27 секунд назад
Последний личер: 17 часов 45 минут 27 секунд назад
Приватный: Нет (DHT включён)
Бизнес, экономика и финансы Скачать торрент
Скачать торрент
[ Размер 19.97 КБ / Просмотров 6 ]

Поделиться



  • Похожие торренты
    Ответы
    Просмотры
    Последнее сообщение

Вернуться в Бизнес, экономика и финансы