Сообщение

Борис Комаров | Биткоин-мастер для новичков. От А до Я (2016) PCRec [tsc2/720p-LQ]

Сообщение Солнышко » 05 ноя 2017, 22:47

Борис Комаров | Биткоин-мастер для новичков. От А до Я (2016) PCRec

Автор (режиссер): Борис Комаров
Производство: criptodengi.ru
Жанр: Криптовалюты, биткойн

Описание:
Вашему вниманию представлен первый обучающий курс о Биткойне на русском языке — «Биткойн-мастер».
Данный курс целиком и полностью посвящен сети Биткойн и криптовалюте биткойн и охватывает все основные и важные темы касательно данных понятий.

Автор курса — Борис Комаров, популярный криптовалютный влоггер и создатель проекта «Криптоденьги». Больше об авторе можно узнать на его личном сайте здесь.

Курс «Биткойн-мастер» состоит из 27 видео-уроков разной продолжительностью

Продолжительность: 05:19:01
Качество видео: PCRec

Видео: tsc2, 1280x720, ~55.9 Kbps
Аудио: PCM, 1 ch, 352 Kbps
Код: Выделить всё
Complete name                  : C:\__Биткоин  мастер для новичков. От А до Я\0.1. Приветствие.avi
Format                         : AVI
Format/Info                    : Audio Video Interleave
File size                      : 18.0 MiB
Duration                       : 4 min 28 s
Overall bit rate               : 562 kb/s

Video
ID                             : 0
Format                         : tsc2
Codec ID                       : tsc2
Duration                       : 4 min 28 s
Bit rate                       : 55.9 kb/s
Width                          : 1 280 pixels
Height                         : 720 pixels
Display aspect ratio           : 16:9
Frame rate                     : 30.000 FPS
Bits/(Pixel*Frame)             : 0.002
Stream size                    : 1.79 MiB (10%)

Audio
ID                             : 1
Format                         : PCM
Format settings, Endianness    : Little
Format settings, Sign          : Signed
Codec ID                       : 1
Duration                       : 4 min 28 s
Bit rate mode                  : Constant
Bit rate                       : 352.8 kb/s
Channel(s)                     : 1 channel
Sampling rate                  : 22.05 kHz
Bit depth                      : 16 bits
Stream size                    : 11.3 MiB (63%)
Alignment                      : Aligned on interleaves
Interleave, duration           : 33  ms (1.00 video frame)
Interleave, preload duration   : 366  ms

omplete name                  : C:\__Биткоин  мастер для новичков. От А до Я\0.2. Об авторе.avi
Format                         : AVI
Format/Info                    : Audio Video Interleave
File size                      : 19.4 MiB
Duration                       : 4 min 43 s
Overall bit rate               : 574 kb/s

Video
ID                             : 0
Format                         : tsc2
Codec ID                       : tsc2
Duration                       : 4 min 43 s
Bit rate                       : 67.5 kb/s
Width                          : 1 280 pixels
Height                         : 720 pixels
Display aspect ratio           : 16:9
Frame rate                     : 30.000 FPS
Bits/(Pixel*Frame)             : 0.002
Stream size                    : 2.28 MiB (12%)

Audio
ID                             : 1
Format                         : PCM
Format settings, Endianness    : Little
Format settings, Sign          : Signed
Codec ID                       : 1
Duration                       : 4 min 43 s
Bit rate mode                  : Constant
Bit rate                       : 352.8 kb/s
Channel(s)                     : 1 channel
Sampling rate                  : 22.05 kHz
Bit depth                      : 16 bits
Stream size                    : 11.9 MiB (62%)
Alignment                      : Aligned on interleaves
Interleave, duration           : 33  ms (1.00 video frame)
Interleave, preload duration   : 366  ms

Complete name                  : C:\__Биткоин  мастер для новичков. От А до Я\0.3. Содержание курса.avi
Format                         : AVI
Format/Info                    : Audio Video Interleave
File size                      : 13.7 MiB
Duration                       : 3 min 26 s
Overall bit rate               : 556 kb/s

Video
ID                             : 0
Format                         : tsc2
Codec ID                       : tsc2
Duration                       : 3 min 26 s
Bit rate                       : 49.2 kb/s
Width                          : 1 280 pixels
Height                         : 720 pixels
Display aspect ratio           : 16:9
Frame rate                     : 30.000 FPS
Bits/(Pixel*Frame)             : 0.002
Stream size                    : 1.21 MiB (9%)

Audio
ID                             : 1
Format                         : PCM
Format settings, Endianness    : Little
Format settings, Sign          : Signed
Codec ID                       : 1
Duration                       : 3 min 26 s
Bit rate mode                  : Constant
Bit rate                       : 352.8 kb/s
Channel(s)                     : 1 channel
Sampling rate                  : 22.05 kHz
Bit depth                      : 16 bits
Stream size                    : 8.69 MiB (63%)
Alignment                      : Aligned on interleaves
Interleave, duration           : 33  ms (1.00 video frame)
Interleave, preload duration   : 366  ms

Complete name                  : C:\__Биткоин  мастер для новичков. От А до Я\1.1. Что такое Биткойн и криптовалюта биткойн.avi
Format                         : AVI
Format/Info                    : Audio Video Interleave
File size                      : 44.7 MiB
Duration                       : 10 min 56 s
Overall bit rate               : 571 kb/s

Video
ID                             : 0
Format                         : tsc2
Codec ID                       : tsc2
Duration                       : 10 min 56 s
Bit rate                       : 69.2 kb/s
Width                          : 1 280 pixels
Height                         : 720 pixels
Display aspect ratio           : 16:9
Frame rate                     : 30.000 FPS
Bits/(Pixel*Frame)             : 0.003
Stream size                    : 5.41 MiB (12%)

Audio
ID                             : 1
Format                         : PCM
Format settings, Endianness    : Little
Format settings, Sign          : Signed
Codec ID                       : 1
Duration                       : 10 min 56 s
Bit rate mode                  : Constant
Bit rate                       : 352.8 kb/s
Channel(s)                     : 1 channel
Sampling rate                  : 22.05 kHz
Bit depth                      : 16 bits
Stream size                    : 27.6 MiB (62%)
Alignment                      : Aligned on interleaves
Interleave, duration           : 33  ms (1.00 video frame)
Interleave, preload duration   : 366  ms

Complete name                  : C:\__Биткоин  мастер для новичков. От А до Я\1.2. Общие данные о криптовалюте биткойн.avi
Format                         : AVI
Format/Info                    : Audio Video Interleave
File size                      : 65.6 MiB
Duration                       : 16 min 10 s
Overall bit rate               : 567 kb/s

Video
ID                             : 0
Format                         : tsc2
Codec ID                       : tsc2
Duration                       : 16 min 10 s
Bit rate                       : 66.2 kb/s
Width                          : 1 280 pixels
Height                         : 720 pixels
Display aspect ratio           : 16:9
Frame rate                     : 30.000 FPS
Bits/(Pixel*Frame)             : 0.002
Stream size                    : 7.66 MiB (12%)

Audio
ID                             : 1
Format                         : PCM
Format settings, Endianness    : Little
Format settings, Sign          : Signed
Codec ID                       : 1
Duration                       : 16 min 10 s
Bit rate mode                  : Constant
Bit rate                       : 352.8 kb/s
Channel(s)                     : 1 channel
Sampling rate                  : 22.05 kHz
Bit depth                      : 16 bits
Stream size                    : 40.8 MiB (62%)
Alignment                      : Aligned on interleaves
Interleave, duration           : 33  ms (1.00 video frame)
Interleave, preload duration   : 366  ms
Урок 1 : что такое Биткойн и криптовалюта биткойн?
Урок 2: общие данные о криптовалюте биткойн.
Урок 3: как происходит создание биткойнов?
Урок 4: применение биткойна в жизни.
Урок 5: курс и цена биткойна.
Урок 6: как работают сеть Биткойн и криптовалюта биткойн?
Урок 7: хранение биткойнов.
Урок 8: о криптовалютных-кошельках и видах хранения криптовалюты.
Урок 9: выбор биткойн-кошелька и создание нового биткойн-адреса.
Урок 10: покупка и продажа биткойнов.
Урок 11: примеры сайтов и сервисов для покупки и продажи биткойнов.
Урок 12: покупка биткойнов.
Урок 13: переводы в биткойнах.
Урок 14: продажа биткойнов.
Урок 15: покупка товаров и услуг за биткойны.
Урок 16: как и где заработать биткойны?
Урок 17: как получать биткойны в дар?
Урок 18: настройка приема биткойн-пожертвования онлайн.
Урок 19: как получать биткойны на чай?
Урок 20: настройка приема биткойн-чаевых на сайте.
Урок 21: подключение биткойна к бизнесу.
Урок 22: настройка приема оплаты в биткойнах на сайте.
Урок 23: безопасность использования и хранения биткойнов.
Урок 24: создание бумажного биткойн-кошелька.
Урок 25: аппаратные биткойн-кошельки.
Урок 26: проблемы биткойна.
Урок 27: будущее биткойна.

Скриншоты:



Время раздачи: Пн-Пт с 18:00 до 22:00 (до появления первых 3-5 скачавших)

Постеры

Соцсети

 

Статистика

Автор: Солнышко
Добавлен: 05 ноя 2017, 22:47
Размер: 2.99 ГБ
Размер: 3 212 185 619 байт
Сидеров: 6
Личеров: 0
Скачали: 0
Здоровье: 100%
Раздающих: 100%
Скорость скачивания: 0 байт/сек
Скорость раздачи: 0 байт/сек
Последний сидер: 3 дня 2 часа 15 минут 40 секунд назад
Последний личер: 10 месяцев 23 дня 15 часов 52 минуты 59 секунд назад
Приватный: Нет (DHT включён)
Бизнес, экономика и финансы Скачать торрент
Скачать торрент
[ Размер 20.57 КБ / Просмотров 9 ]

Поделиться



  • Похожие торренты
    Ответы
    Просмотры
    Последнее сообщение

Вернуться в Бизнес, экономика и финансы