Сообщение

Лилия Нилова | Instaграмотность (2017) PCRec [H.264]

Сообщение Солнышко » 05 ноя 2017, 22:48

Лилия Нилова | Instaграмотность (2017) PCRec [H.264]

Автор (режиссер): Лилия Нилова
Жанр: Продвижение инстаграм, SEO

Описание:
Это вся та же Инста-грамотность, только круче!
- Теперь все обучение проходит на современной ОНЛАЙН-платформе
- Для доступа к урокам нужен только Интернет и телефон/ноутбук/планшет
- Я полностью перезаписала все уроки, теперь они ещё информативнее, а информация ещё актуальнее

В общем, это самый подробный и полный ОНЛАЙН курс по продвижению в Instagram. И вам стоит принять в нем участие. Почему?

-Потому что я смотрела все доступные курсы и школы Instagram в России и училась у пяти экспертов из США, в том числе у ребят из Facebook.
-Потому что у меня больше 2000 учеников, ведущих бизнес в Instagram со средним оборотом 50.000-300.000.
-Потому что я применяю на практике свои знания и вы сами видите как растёт мой аккаунт (330 тысяч подписчиков за 13 месяцев).

Продолжительность: 16:16:24
Качество видео: PCRec

Видео: AVC/H.264, 640-1280x360-720, ~375 Kbps
Аудио: AAC, 2 ch, 38-256 Kbps
Код: Выделить всё
Complete name                  : C:\1. Запись вводного вебинара.MP4
Format                         : MPEG-4
Format profile                 : Base Media
Codec ID                       : isom (isom/iso2/avc1/mp41)
File size                      : 55.1 MiB
Duration                       : 1 h 31 min
Overall bit rate mode          : Variable
Overall bit rate               : 84.5 kb/s
Writing application            : Lavf55.48.100

Video
ID                             : 1
Format                         : AVC
Format/Info                    : Advanced Video Codec
Format profile                 : High@L4
Format settings, CABAC         : Yes
Format settings, ReFrames      : 6 frames
Codec ID                       : avc1
Codec ID/Info                  : Advanced Video Coding
Duration                       : 1 h 31 min
Bit rate                       : 43.1 kb/s
Nominal bit rate               : 524 kb/s
Width                          : 1 280 pixels
Height                         : 720 pixels
Display aspect ratio           : 16:9
Frame rate mode                : Constant
Frame rate                     : 15.000 FPS
Color space                    : YUV
Chroma subsampling             : 4:2:0
Bit depth                      : 8 bits
Scan type                      : Progressive
Bits/(Pixel*Frame)             : 0.003
Stream size                    : 28.1 MiB (51%)
Writing library                : x264 core 148 r2638 7599210
Encoding settings              : cabac=1 / ref=6 / deblock=1:0:0 / analyse=0x3:0x113 / me=dia / subme=8 / psy=1 / psy_rd=1.00:0.00 / mixed_ref=1 / me_range=4 / chroma_me=0 / trellis=2 / 8x8dct=1 / cqm=0 / deadzone=21,11 / fast_pskip=1 / chroma_qp_offset=-2 / threads=3 / lookahead_threads=1 / sliced_threads=0 / nr=0 / decimate=1 / interlaced=0 / bluray_compat=0 / constrained_intra=0 / bframes=0 / weightp=2 / keyint=150 / keyint_min=15 / scenecut=1 / intra_refresh=0 / rc_lookahead=40 / rc=abr / mbtree=1 / bitrate=524 / ratetol=1.0 / qcomp=0.60 / qpmin=18 / qpmax=28 / qpstep=4 / ip_ratio=1.40 / aq=1:1.00

Audio
ID                             : 2
Format                         : AAC
Format/Info                    : Advanced Audio Codec
Format profile                 : LC
Codec ID                       : 40
Duration                       : 1 h 31 min
Bit rate mode                  : Variable
Bit rate                       : 38.0 kb/s
Maximum bit rate               : 128 kb/s
Channel(s)                     : 2 channels
Channel(s)_Original            : 1 channel
Channel positions              : Front: C
Sampling rate                  : 22.05 kHz
Frame rate                     : 21.533 FPS (1024 spf)
Compression mode               : Lossy
Stream size                    : 24.8 MiB (45%)
Default                        : Yes
Alternate group                : 1

Complete name                  : C:\2. Урок 1. Часть 1. Оформление аккаунта.MP4
Format                         : MPEG-4
Format profile                 : QuickTime
Codec ID                       : qt   0000.00 (qt  )
File size                      : 102 MiB
Duration                       : 21 min 2 s
Overall bit rate mode          : Variable
Overall bit rate               : 679 kb/s
Encoded date                   : UTC 2017-04-09 06:07:01
Tagged date                    : UTC 2017-04-09 06:33:15
Writing library                : Apple QuickTime
com.apple.quicktime.make       : Apple
com.apple.quicktime.model      : MacBook9,1
com.apple.quicktime.software   : Mac OS X 10.11.6 (15G31)
com.apple.quicktime.creationda : 2017-04-09T02:07:00-0400

Video
ID                             : 1
Format                         : AVC
Format/Info                    : Advanced Video Codec
Format profile                 : Main@L3
Format settings, CABAC         : Yes
Format settings, ReFrames      : 2 frames
Format settings, GOP           : M=2, N=15
Codec ID                       : avc1
Codec ID/Info                  : Advanced Video Coding
Duration                       : 21 min 2 s
Source duration                : 21 min 5 s
Bit rate mode                  : Variable
Bit rate                       : 343 kb/s
Maximum bit rate               : 768 kb/s
Width                          : 756 pixels
Height                         : 415 pixels
Original height                : 414 pixels
Display aspect ratio           : 1.85:1
Original display aspect ratio  : 1.85:1
Frame rate mode                : Constant
Frame rate                     : 15.000 FPS
Original frame rate            : 25.000 FPS
Color space                    : YUV
Chroma subsampling             : 4:2:0
Bit depth                      : 8 bits
Scan type                      : Progressive
Bits/(Pixel*Frame)             : 0.073
Stream size                    : 51.6 MiB (50%)
Source stream size             : 51.7 MiB (51%)
Title                          : Core Media Video
Encoded date                   : UTC 2017-04-09 06:07:01
Tagged date                    : UTC 2017-04-09 06:33:15
Color range                    : Limited
Color primaries                : BT.709
Transfer characteristics       : BT.709
Matrix coefficients            : BT.709

Audio
ID                             : 2
Format                         : AAC
Format/Info                    : Advanced Audio Codec
Format profile                 : LC
Codec ID                       : 40
Duration                       : 21 min 2 s
Source duration                : 21 min 5 s
Bit rate mode                  : Constant
Bit rate                       : 256 kb/s
Channel(s)                     : 2 channels
Channel positions              : Front: L R
Sampling rate                  : 44.1 kHz
Frame rate                     : 43.066 FPS (1024 spf)
Compression mode               : Lossy
Stream size                    : 38.4 MiB (38%)
Source stream size             : 38.5 MiB (38%)
Title                          : Core Media Audio
Encoded date                   : UTC 2017-04-09 06:07:01
Tagged date                    : UTC 2017-04-09 06:33:15

Complete name                  : C:\5. Урок 2. Статистика и базовые термины.MP4
Format                         : MPEG-4
Format profile                 : QuickTime
Codec ID                       : qt   0000.00 (qt  )
File size                      : 171 MiB
Duration                       : 33 min 45 s
Overall bit rate mode          : Variable
Overall bit rate               : 707 kb/s
Encoded date                   : UTC 2017-04-09 07:21:34
Tagged date                    : UTC 2017-04-09 08:06:45
Writing library                : Apple QuickTime
com.apple.quicktime.make       : Apple
com.apple.quicktime.model      : MacBook9,1
com.apple.quicktime.software   : Mac OS X 10.11.6 (15G31)
com.apple.quicktime.creationda : 2017-04-09T03:21:33-0400

Video
ID                             : 1
Format                         : AVC
Format/Info                    : Advanced Video Codec
Format profile                 : Main@L3
Format settings, CABAC         : Yes
Format settings, ReFrames      : 2 frames
Format settings, GOP           : M=2, N=15
Codec ID                       : avc1
Codec ID/Info                  : Advanced Video Coding
Duration                       : 33 min 45 s
Source duration                : 33 min 52 s
Bit rate mode                  : Variable
Bit rate                       : 375 kb/s
Maximum bit rate               : 768 kb/s
Width                          : 756 pixels
Height                         : 415 pixels
Original height                : 414 pixels
Display aspect ratio           : 1.85:1
Original display aspect ratio  : 1.85:1
Frame rate mode                : Constant
Frame rate                     : 15.000 FPS
Original frame rate            : 25.000 FPS
Color space                    : YUV
Chroma subsampling             : 4:2:0
Bit depth                      : 8 bits
Scan type                      : Progressive
Bits/(Pixel*Frame)             : 0.080
Stream size                    : 90.5 MiB (53%)
Source stream size             : 91.0 MiB (53%)
Title                          : Core Media Video
Encoded date                   : UTC 2017-04-09 07:21:34
Tagged date                    : UTC 2017-04-09 08:06:45
Color range                    : Limited
Color primaries                : BT.709
Transfer characteristics       : BT.709
Matrix coefficients            : BT.709

Audio
ID                             : 2
Format                         : AAC
Format/Info                    : Advanced Audio Codec
Format profile                 : LC
Codec ID                       : 40
Duration                       : 33 min 45 s
Source duration                : 33 min 52 s
Bit rate mode                  : Constant
Bit rate                       : 256 kb/s
Channel(s)                     : 2 channels
Channel positions              : Front: L R
Sampling rate                  : 44.1 kHz
Frame rate                     : 43.066 FPS (1024 spf)
Compression mode               : Lossy
Stream size                    : 62.3 MiB (37%)
Source stream size             : 62.5 MiB (37%)
Title                          : Core Media Audio
Encoded date                   : UTC 2017-04-09 07:21:34
Tagged date                    : UTC 2017-04-09 08:06:45

Complete name                  : C:\9. Урок 5. Основные принципы создания фотоконтента. Урок 1.MP4
Format                         : MPEG-4
Format profile                 : Base Media / Version 2
Codec ID                       : mp42 (isom/mp42)
File size                      : 193 MiB
Duration                       : 1 h 12 min
Overall bit rate mode          : Variable
Overall bit rate               : 372 kb/s
Encoded date                   : UTC 2017-04-18 15:03:08
Tagged date                    : UTC 2017-04-18 15:03:08

Video
ID                             : 1
Format                         : AVC
Format/Info                    : Advanced Video Codec
Format profile                 : Baseline@L3
Format settings, CABAC         : No
Format settings, ReFrames      : 1 frame
Format settings, GOP           : M=1, N=60
Codec ID                       : avc1
Codec ID/Info                  : Advanced Video Coding
Duration                       : 1 h 12 min
Bit rate                       : 274 kb/s
Maximum bit rate               : 1 334 kb/s
Width                          : 640 pixels
Height                         : 360 pixels
Display aspect ratio           : 16:9
Frame rate mode                : Constant
Frame rate                     : 30.000 FPS
Color space                    : YUV
Chroma subsampling             : 4:2:0
Bit depth                      : 8 bits
Scan type                      : Progressive
Bits/(Pixel*Frame)             : 0.040
Stream size                    : 142 MiB (74%)
Tagged date                    : UTC 2017-04-18 15:03:33
Color range                    : Limited
Color primaries                : BT.709
Transfer characteristics       : BT.709
Matrix coefficients            : BT.709

Audio
ID                             : 2
Format                         : AAC
Format/Info                    : Advanced Audio Codec
Format profile                 : LC
Codec ID                       : 40
Duration                       : 1 h 12 min
Bit rate mode                  : Variable
Bit rate                       : 96.0 kb/s
Maximum bit rate               : 104 kb/s
Channel(s)                     : 2 channels
Channel positions              : Front: L R
Sampling rate                  : 44.1 kHz
Frame rate                     : 43.066 FPS (1024 spf)
Compression mode               : Lossy
Stream size                    : 49.8 MiB (26%)
Title                          : IsoMedia File Produced by Google, 5-11-2011
Encoded date                   : UTC 2017-04-18 15:03:21
Tagged date                    : UTC 2017-04-18 15:03:33
-Оформление аккаунта
-Лимиты и Безопасность
-Виды контента и их использование
-Контент-план и отложенный постинг
-Сервисы статистики
-Бизнес аккаунт
-Вовлечённость
-Хэштеги и Геотеги
-Таргетированная реклама
-Паблики и биржи блогеров
-Звёздные гивэвэи
-Реклама у блогеров
-Нетворкинг
-Shopping Tag
-Продвижение Видео
-Продвижение Stories
-Как попасть в Рекомендованное
-Марафоны, конкурсы, квесты
-Как реанимировать дохлого коня
-Клонирование аккаунта
-Нативная реклама
__4. Дополнительно к уроку 1. Словарь.pdf
__8. Дополнительно к уроку 4. Полезные приложения для работы в Инстаграм.pdf
__12. Дополнительно к уроку 7. Форма аватаров клиента.xlsx
__17. Дополнительно к уроку 11. Контент план.xlsx
__20. Дополнительно к уроку 13 крутых тем для постов.docx

Скриншоты:



Время раздачи: Пн-Пт с 18:00 до 22:00 (до появления первых 3-5 скачавших)

Постеры

Соцсети

 

Статистика

Автор: Солнышко
Добавлен: 05 ноя 2017, 22:48
Размер: 3.11 ГБ
Размер: 3 335 421 404 байт
Сидеров: 3
Личеров: 0
Скачали: 0
Здоровье: 100%
Раздающих: 100%
Скорость скачивания: 0 байт/сек
Скорость раздачи: 0 байт/сек
Последний сидер: 9 дней 19 часов 10 минут 35 секунд назад
Последний личер: Нет
Приватный: Нет (DHT включён)
Бизнес, экономика и финансы Скачать торрент
Скачать торрент
[ Размер 19.5 КБ / Просмотров 17 ]

Поделиться



  • Похожие торренты
    Ответы
    Просмотры
    Последнее сообщение

Вернуться в Бизнес, экономика и финансы