Сообщение

Дмитрий Орлов | Криптоинвесторы (2017) PCRec [H.264]

Сообщение Солнышко » 05 ноя 2017, 22:49

Дмитрий Орлов | Криптоинвесторы (2017) PCRec [H.264]

Автор (режиссер): Дмитрий Орлов
Жанр: Криптовалюты, криптотрейдинг

Описание:
Кто разработал курс: Дмитрий Орлов и #команда Криптоинвесторы — это специалисты в области криптовалют и трейдинга, успешные инвесторы со стажем торговли на рынке криптовалюты более 2 лет.

В итоге вы получите систему и навык анализа рынка, как правильно подбирать перспективную монету или ICO. Сколько и когда купить, какие монеты можно оставить на долгий срок, а какие лучше продать зафиксировав прибыль.

Продолжительность: 08:38:44
Качество видео: PCRec

Видео: AVC/H.264, 1152-1920x720-1080, ~235-4619 Kbps
Аудио: Другой, 2 ch, 125-192 Kbps
1. Признаки хорошего ICO:

— Учимся определяем стоимость токена и его капитализацию;

— Сроки проведения ICO и его общий анализ;

— Сервисы для участия в ICO, их подробный обзор.

— Как отличить перспективные ICO от пирамид.

— Новостные ресурсы по ICO.

2. Собираем портфель на 1 Bitcoin в реальном времени.

3. Local Bitcoins, как выгодно продавать и покупать Bitcoin.

4. Торговые сервисы «Сoinigy» «Tradingview».

— Глубокий анализ крипто-рынка: графики, объемы рынка, торговые индикаторы, линии тренда;

— Функционал торговых сервисов: типы диаграмм, интервал времени;

— Технический анализ, позволяющий видеть фундаментальные показатели, и общую картину рынка находясь в той или иной торговой позиции.

5. Волатильность криптовалют и с чем она связана.

— ПАПМ и ДАМП

6. Как совершать торговую сделку на бирже:

— Какие использовать ордера, что бы избежать проскальзывания на бирже,

как правильно подобрать и выставит нужный ордер,

работа с разными видами ордеров на различных биржах,

включая стопы, все виды ордеров на покупку и продажу,

какие использовать и почему, как не попасть на раздвижение, и не терять $

— Пример торговли в реальном времени, покупка криптовалют на бирже.

— Графики и свечи.

7. Активный трейдинг, прибыль от + 30 до +100% в неделю и выше.

— Стратегия торговли, скрытые ошибки и возможности этого типа трейдинга.

8. Тайм фрейм

Риск менеджмент - почему важно и как правильно им управлять

(учимся определять оптимальное время нахождения в позиции).

— Сколько и в какой валюте необходимо держать и в каком % соотношении.

— Как фиксировать прибыль и в какой момент выходить из рынка, чтобы на падении не потерять.

9. Два вида торговли:

— Ежедневный – Работа со своими позициями утром и вечером по 30 минут

— Недельный – Проверка своих торговых позиций 1-3 раза в неделю по 30-40 минут

10. Маржинальный трейдинг или торговля с плечом.

11. Шорт.

12. Как создать свой собственный «Криптовалютный обменник» и заработать на нем.

13. Правовое поле криптовалют и ICO.

14. Bitcoin Talk (BTT, Биткоин Толк):

— Регистрация и система рангов, сколько нужно времени для раскрутки и не лучше ли купить прокачанный аккаунт (как создать, с чего начать, как не попасть в бан?);

— Показ на примере текущего баунти ICO Domrider — последовательность действий, необходимых для заработка и где найти все ICO, раздающие токены бесплатно в BTT;

— Сколько можно зарабатывать с нуля через пару месяцев в Биткоинтолке на баунти, посредством – Twitter | Facebook | YouTube? (300-1000+$), а также подписные компании (через месяц – начиная с уровня Jr.Member);

— Как производить расчеты своей будущей прибыли? Вспомогательные таблицы (Word|Excel) на Google диске. Где узнавать о выходе монет на биржи и о том когда монеты придут на кошелёк;

— Новостной анализ (таблицы | Twitter):

— Корреляционно-регрессионный анализ новостей по их видам (сотрудничество с мировыми гигантами (OMG-McDonalds в Тайланде), рост на новостях о ближайших конференциях и неоправданность ожиданий от увиденного (Komodo), объявление о предстоящем выходе на биржу и непосредственно сам выход на новую биржу (Monaco), выпуск значимого продукта (Civik) или его обещание (карта, вэб-приложение, либо приложение на Android/IOS — Tenx), что бывает если выпущенный продукт не оправдывает ожиданий инвесторов (Monaco-Visa);

— Важность составления и знания дорожных карт (Road Map — роадмапов) по монетам в портфеле (чтобы новости в Twitter не были неожиданностью);

— Примеры реакции курсов монет в Августе-Сентябре на выход новостей по ним (Neo, Adex, Civik, Tenx, Monaco, Stox, LGD, Komodo, Omisgo, Trig, Okcash);

15. Рассмотрение Reddit, Slack;

16. Площадка по раскрутке своих социальных сетей: Twitter | Facebook | YouTube | Google+ при помощи TVE (The viral exchange) и показ на видео, как это работает в реальном времени на примере видео про 5 ICO, монетка Blitz на Bittrex;

17. Реферальные Баунти-компании на примере Authorship, Datum network

18. Как провести и запустить ICO.

19. Сравнение фондового рынка с рынком криптовалюты.

20. Дейтрейдинг, что это такое, и как на этом заработать.

21. Арбитраж – что это такое и как на нем зарабатывать
Рекомендации автора Книги к прочтению:

Билл Уильямс. - Торговый Хаос (1995) [.pdf]

ДжонДж. Мэрфи. - Технический анализ фьючерсных рынков (1996) [.pdf]

Эрик Найман. - Малая энциклопедия трейдера (1999) [.pdf]

Адам Смит. -Биржа. Игра на деньги (2001) [.pdf]

Джек Швагер. - Технический анализ - Полный курс (2001) [.doc]

Бодо Шефер. - Путь к финансовой независимости (2002) [.pdf]

Шер Брайан. - Как делать деньги из воздуха (2004) [.pdf]

Турбо-суслик. - Как прекратить трахать себе мозг и начать жить (2008) [.pdf]

Бенджамин Грэхем. - Разумный инвестор (2009) [.pdf]

Бен Мезрич. - Миллиардеры поневоле (2011) [.pdf]

Бретт C. - Самоучитель трейдера Психология, техника, тактика и стратегия (2012) [.pdf]

Александр Аузан. - Экономика всего. Как институты определяют нашу жизнь (2014) [.pdf]

Дэвид Гребер Долг. - Первые 5000 лет истории (2014) [.pdf]

Владимир Попов. - ICO сущность проблемы закон (2014) [.pdf]

Пол Винья, Майкл Кейси. - Эпоха криптовалют (2015) [.pdf]

Адам Теппер. - Биткойн – Деньги для всех (2016) [.pdf]

Натаниел Поппер. - Цифровое золото (2016) [.pdf]

Локалбиткоинc - localbitcoins - видео гид

Урок 1. Регистрация настройки пополнение баланса [.m2ts]
Урок 2. Создание заявки на продажу биткоинов и оформление [.m2ts]
Урок 3. Создание заявки на покупку контроль заявок [.m2ts]
Урок 4. Покупка биткоинов онлайн с карты контроль заявок [.m2ts]
Урок 5. Прибыль за полдня при условии нескольких сделок [.m2ts]
Урок 6. Результат работы за сутки работы на локал биткоин [.m2ts]

дополнительные материалы
1. Правила инвестирования [.png]
2. Приложения из гугла [.png]
Mastering Bitcoin - технический справочник по BitCoin [.pdf]
Методичка iTuber + Список Сервисов + Глоссарий + Список Монет Для Инвестирования На Лето 2017 [.docx]
Рекомендованные ссылки [.docx]
Точки входа [.xls]
4. Как хранить и использовать биткоины [.pdf]
4. Мониторинг ICO [.docx]
5. Участие в ICO ссылки [.docx]
6. Маржинальная торговля [.pdf]
9. Арбитраж на критобиржах [.pdf]
Код: Выделить всё
General
Complete name                  : C:Дмитрий Орлов - КриптоинвесторыБазовый1) 6 поток 1 сессия #криптоинвесторы.mp4
Format                         : MPEG-4
Format profile                 : Base Media / Version 2
Codec ID                       : mp42 (isom/mp42)
File size                      : 451 MiB
Duration                       : 1 h 58 min
Overall bit rate mode          : Variable
Overall bit rate               : 531 kb/s
Encoded date                   : UTC 2017-08-30 10:25:20
Tagged date                    : UTC 2017-08-30 10:25:20
gsst                           : 0
gstd                           : 7121258

Video
ID                             : 1
Format                         : AVC
Format/Info                    : Advanced Video Codec
Format profile                 :
Format settings, CABAC         : Yes
Format settings, ReFrames      : 3 frames
Codec ID                       : avc1
Codec ID/Info                  : Advanced Video Coding
Duration                       : 1 h 58 min
Bit rate                       : 402 kb/s
Width                          : 1 280 pixels
Height                         : 720 pixels
Display aspect ratio           : 16:9
Frame rate mode                : Constant
Frame rate                     : 29.970 (30000/1001) FPS
Color space                    : YUV
Chroma subsampling             : 4:2:0
Bit depth                      : 8 bits
Scan type                      : Progressive
Bits/(Pixel*Frame)             : 0.015
Stream size                    : 341 MiB (76%)
Title                          : ISO Media file produced by Google Inc. Created on: 08/30/2017.
Encoded date                   : UTC 2017-08-30 10:25:20
Tagged date                    : UTC 2017-08-30 10:25:20
Color range                    : Limited
Color primaries                : BT.709
Transfer characteristics       : BT.709
Matrix coefficients            : BT.709

Audio
ID                             : 2
Format                         : AAC
Format/Info                    : Advanced Audio Codec
Format profile                 : LC
Codec ID                       : 40
Duration                       : 1 h 58 min
Source duration                : 1 h 58 min
Bit rate mode                  : Variable
Bit rate                       : 126 kb/s
Channel(s)                     : 2 channels
Channel positions              : Front: L R
Sampling rate                  : 44.1 kHz
Frame rate                     : 43.066 FPS (1024 spf)
Compression mode               : Lossy
Stream size                    : 107 MiB (24%)
Source stream size             : 107 MiB (24%)
Title                          : ISO Media file produced by Google Inc. Created on: 08/30/2017.
Encoded date                   : UTC 2017-08-30 10:25:20
Tagged date                    : UTC 2017-08-30 10:25:20

General
Complete name                  : C:Дмитрий Орлов - КриптоинвесторыБазовый2) Обзор coinmarketcap курс Базовый #криптоинвесторы.mp4
Format                         : MPEG-4
Format profile                 : Base Media / Version 2
Codec ID                       : mp42 (isom/mp42)
File size                      : 23.5 MiB
Duration                       : 9 min 0 s
Overall bit rate mode          : Variable
Overall bit rate               : 365 kb/s
Encoded date                   : UTC 2017-09-12 17:53:06
Tagged date                    : UTC 2017-09-12 17:53:06
gsst                           : 0
gstd                           : 540189

Video
ID                             : 1
Format                         : AVC
Format/Info                    : Advanced Video Codec
Format profile                 :
Format settings, CABAC         : Yes
Format settings, ReFrames      : 3 frames
Codec ID                       : avc1
Codec ID/Info                  : Advanced Video Coding
Duration                       : 9 min 0 s
Bit rate                       : 236 kb/s
Width                          : 1 152 pixels
Height                         : 720 pixels
Display aspect ratio           : 16:10
Frame rate mode                : Constant
Frame rate                     : 30.000 FPS
Color space                    : YUV
Chroma subsampling             : 4:2:0
Bit depth                      : 8 bits
Scan type                      : Progressive
Bits/(Pixel*Frame)             : 0.009
Stream size                    : 15.2 MiB (65%)
Title                          : ISO Media file produced by Google Inc. Created on: 09/12/2017.
Encoded date                   : UTC 2017-09-12 17:53:06
Tagged date                    : UTC 2017-09-12 17:53:06
Color range                    : Limited
Color primaries                : BT.709
Transfer characteristics       : BT.709
Matrix coefficients            : BT.709

Audio
ID                             : 2
Format                         : AAC
Format/Info                    : Advanced Audio Codec
Format profile                 : LC
Codec ID                       : 40
Duration                       : 9 min 0 s
Bit rate mode                  : Variable
Bit rate                       : 126 kb/s
Channel(s)                     : 2 channels
Channel positions              : Front: L R
Sampling rate                  : 44.1 kHz
Frame rate                     : 43.066 FPS (1024 spf)
Compression mode               : Lossy
Stream size                    : 8.09 MiB (34%)
Title                          : ISO Media file produced by Google Inc. Created on: 09/12/2017.
Encoded date                   : UTC 2017-09-12 17:53:06
Tagged date                    : UTC 2017-09-12 17:53:06

General
Complete name                  : C:Дмитрий Орлов - КриптоинвесторыБазовый3) STOP-LIMIT #криптоинвесторы.mp4
Format                         : MPEG-4
Format profile                 : Base Media / Version 2
Codec ID                       : mp42 (isom/mp42)
File size                      : 38.8 MiB
Duration                       : 7 min 35 s
Overall bit rate mode          : Variable
Overall bit rate               : 715 kb/s
Encoded date                   : UTC 2017-08-30 09:57:46
Tagged date                    : UTC 2017-08-30 09:57:46
gsst                           : 0
gstd                           : 455343

Video
ID                             : 1
Format                         : AVC
Format/Info                    : Advanced Video Codec
Format profile                 :
Format settings, CABAC         : Yes
Format settings, ReFrames      : 3 frames
Codec ID                       : avc1
Codec ID/Info                  : Advanced Video Coding
Duration                       : 7 min 35 s
Bit rate                       : 586 kb/s
Width                          : 1 280 pixels
Height                         : 720 pixels
Display aspect ratio           : 16:9
Frame rate mode                : Constant
Frame rate                     : 29.970 (30000/1001) FPS
Color space                    : YUV
Chroma subsampling             : 4:2:0
Bit depth                      : 8 bits
Scan type                      : Progressive
Bits/(Pixel*Frame)             : 0.021
Stream size                    : 31.8 MiB (82%)
Title                          : ISO Media file produced by Google Inc. Created on: 08/30/2017.
Encoded date                   : UTC 2017-08-30 09:57:46
Tagged date                    : UTC 2017-08-30 09:57:46
Color range                    : Limited
Color primaries                : BT.709
Transfer characteristics       : BT.709
Matrix coefficients            : BT.709

Audio
ID                             : 2
Format                         : AAC
Format/Info                    : Advanced Audio Codec
Format profile                 : LC
Codec ID                       : 40
Duration                       : 7 min 35 s
Bit rate mode                  : Variable
Bit rate                       : 126 kb/s
Channel(s)                     : 2 channels
Channel positions              : Front: L R
Sampling rate                  : 44.1 kHz
Frame rate                     : 43.066 FPS (1024 spf)
Compression mode               : Lossy
Stream size                    : 6.82 MiB (18%)
Title                          : ISO Media file produced by Google Inc. Created on: 08/30/2017.
Encoded date                   : UTC 2017-08-30 09:57:46
Tagged date                    : UTC 2017-08-30 09:57:46

General
Complete name                  : C:Дмитрий Орлов - КриптоинвесторыБазовый4) Краткосрок Тех Анализ Точки входа #криптоинвесторы 2 сессия Курс Базовый.mp4
Format                         : MPEG-4
Format profile                 : Base Media / Version 2
Codec ID                       : mp42 (isom/mp42)
File size                      : 202 MiB
Duration                       : 44 min 52 s
Overall bit rate mode          : Variable
Overall bit rate               : 628 kb/s
Encoded date                   : UTC 2017-08-30 10:24:35
Tagged date                    : UTC 2017-08-30 10:24:35
gsst                           : 0
gstd                           : 2692609

Video
ID                             : 1
Format                         : AVC
Format/Info                    : Advanced Video Codec
Format profile                 :
Format settings, CABAC         : Yes
Format settings, ReFrames      : 3 frames
Codec ID                       : avc1
Codec ID/Info                  : Advanced Video Coding
Duration                       : 44 min 52 s
Bit rate                       : 499 kb/s
Width                          : 1 152 pixels
Height                         : 720 pixels
Display aspect ratio           : 16:10
Frame rate mode                : Constant
Frame rate                     : 30.000 FPS
Color space                    : YUV
Chroma subsampling             : 4:2:0
Bit depth                      : 8 bits
Scan type                      : Progressive
Bits/(Pixel*Frame)             : 0.020
Stream size                    : 160 MiB (79%)
Title                          : ISO Media file produced by Google Inc. Created on: 08/30/2017.
Encoded date                   : UTC 2017-08-30 10:24:35
Tagged date                    : UTC 2017-08-30 10:24:35
Color range                    : Limited
Color primaries                : BT.709
Transfer characteristics       : BT.709
Matrix coefficients            : BT.709

Audio
ID                             : 2
Format                         : AAC
Format/Info                    : Advanced Audio Codec
Format profile                 : LC
Codec ID                       : 40
Duration                       : 44 min 52 s
Bit rate mode                  : Variable
Bit rate                       : 126 kb/s
Channel(s)                     : 2 channels
Channel positions              : Front: L R
Sampling rate                  : 44.1 kHz
Frame rate                     : 43.066 FPS (1024 spf)
Compression mode               : Lossy
Stream size                    : 40.3 MiB (20%)
Title                          : ISO Media file produced by Google Inc. Created on: 08/30/2017.
Encoded date                   : UTC 2017-08-30 10:24:35
Tagged date                    : UTC 2017-08-30 10:24:35

General
ID                             : 0 (0x0)
Complete name                  : C:Дмитрий Орлов - КриптоинвесторыПродвинутый__локалбиткоинУрок 1. Регистрация_ настройки_ пополнение баланса.m2ts
Format                         : BDAV
Format/Info                    : Blu-ray Video
File size                      : 199 MiB
Duration                       : 6 min 39 s
Overall bit rate mode          : Variable
Overall bit rate               : 4 191 kb/s
Maximum Overall bit rate       : 18.0 Mb/s

Video
ID                             : 4113 (0x1011)
Menu ID                        : 1 (0x1)
Format                         : AVC
Format/Info                    : Advanced Video Codec
Format profile                 : High@L4
Format settings, CABAC         : Yes
Format settings, ReFrames      : 2 frames
Codec ID                       : 27
Duration                       : 6 min 38 s
Bit rate mode                  : Variable
Bit rate                       : 3 824 kb/s
Maximum bit rate               : 16.0 Mb/s
Width                          : 1 920 pixels
Height                         : 1 080 pixels
Display aspect ratio           : 16:9
Frame rate                     : 25.000 FPS
Color space                    : YUV
Chroma subsampling             : 4:2:0
Bit depth                      : 8 bits
Scan type                      : Interlaced
Scan type, store method        : Separated fields
Scan order                     : Top Field First
Bits/(Pixel*Frame)             : 0.074
Stream size                    : 182 MiB (91%)

Audio
ID                             : 4352 (0x1100)
Menu ID                        : 1 (0x1)
Format                         : AC-3
Format/Info                    : Audio Coding 3
Mode extension                 : CM (complete main)
Format settings, Endianness    : Big
Codec ID                       : 129
Duration                       : 6 min 38 s
Bit rate mode                  : Constant
Bit rate                       : 192 kb/s
Channel(s)                     : 2 channels
Channel positions              : Front: L R
Sampling rate                  : 48.0 kHz
Frame rate                     : 31.250 FPS (1536 spf)
Bit depth                      : 16 bits
Compression mode               : Lossy
Delay relative to video        : -40 ms
Stream size                    : 9.13 MiB (5%)

General
ID                             : 0 (0x0)
Complete name                  : C:Дмитрий Орлов - КриптоинвесторыПродвинутый__локалбиткоинУрок 2. Создание заявки на продажу биткоинов и оформление.m2ts
Format                         : BDAV
Format/Info                    : Blu-ray Video
File size                      : 504 MiB
Duration                       : 14 min 2 s
Overall bit rate mode          : Variable
Overall bit rate               : 5 018 kb/s
Maximum Overall bit rate       : 18.0 Mb/s

Video
ID                             : 4113 (0x1011)
Menu ID                        : 1 (0x1)
Format                         : AVC
Format/Info                    : Advanced Video Codec
Format profile                 : High@L4
Format settings, CABAC         : Yes
Format settings, ReFrames      : 2 frames
Codec ID                       : 27
Duration                       : 14 min 2 s
Bit rate mode                  : Variable
Bit rate                       : 4 619 kb/s
Maximum bit rate               : 16.0 Mb/s
Width                          : 1 920 pixels
Height                         : 1 080 pixels
Display aspect ratio           : 16:9
Frame rate                     : 25.000 FPS
Color space                    : YUV
Chroma subsampling             : 4:2:0
Bit depth                      : 8 bits
Scan type                      : Interlaced
Scan type, store method        : Separated fields
Scan order                     : Top Field First
Bits/(Pixel*Frame)             : 0.089
Stream size                    : 464 MiB (92%)

Audio
ID                             : 4352 (0x1100)
Menu ID                        : 1 (0x1)
Format                         : AC-3
Format/Info                    : Audio Coding 3
Mode extension                 : CM (complete main)
Format settings, Endianness    : Big
Codec ID                       : 129
Duration                       : 14 min 2 s
Bit rate mode                  : Constant
Bit rate                       : 192 kb/s
Channel(s)                     : 2 channels
Channel positions              : Front: L R
Sampling rate                  : 48.0 kHz
Frame rate                     : 31.250 FPS (1536 spf)
Bit depth                      : 16 bits
Compression mode               : Lossy
Delay relative to video        : -40 ms
Stream size                    : 19.3 MiB (4%)

General
ID                             : 0 (0x0)
Complete name                  : C:Дмитрий Орлов - КриптоинвесторыПродвинутый__локалбиткоинУрок 3. Создание заявки на покупку_ контроль заявок.m2ts
Format                         : BDAV
Format/Info                    : Blu-ray Video
File size                      : 321 MiB
Duration                       : 8 min 20 s
Overall bit rate mode          : Variable
Overall bit rate               : 5 369 kb/s
Maximum Overall bit rate       : 18.0 Mb/s

Video
ID                             : 4113 (0x1011)
Menu ID                        : 1 (0x1)
Format                         : AVC
Format/Info                    : Advanced Video Codec
Format profile                 : High@L4
Format settings, CABAC         : Yes
Format settings, ReFrames      : 2 frames
Codec ID                       : 27
Duration                       : 8 min 20 s
Bit rate mode                  : Variable
Bit rate                       : 4 956 kb/s
Maximum bit rate               : 16.0 Mb/s
Width                          : 1 920 pixels
Height                         : 1 080 pixels
Display aspect ratio           : 16:9
Frame rate                     : 25.000 FPS
Color space                    : YUV
Chroma subsampling             : 4:2:0
Bit depth                      : 8 bits
Scan type                      : Interlaced
Scan type, store method        : Separated fields
Scan order                     : Top Field First
Bits/(Pixel*Frame)             : 0.096
Stream size                    : 296 MiB (92%)

Audio
ID                             : 4352 (0x1100)
Menu ID                        : 1 (0x1)
Format                         : AC-3
Format/Info                    : Audio Coding 3
Mode extension                 : CM (complete main)
Format settings, Endianness    : Big
Codec ID                       : 129
Duration                       : 8 min 20 s
Bit rate mode                  : Constant
Bit rate                       : 192 kb/s
Channel(s)                     : 2 channels
Channel positions              : Front: L R
Sampling rate                  : 48.0 kHz
Frame rate                     : 31.250 FPS (1536 spf)
Bit depth                      : 16 bits
Compression mode               : Lossy
Delay relative to video        : -40 ms
Stream size                    : 11.5 MiB (4%)

General
ID                             : 0 (0x0)
Complete name                  : C:Дмитрий Орлов - КриптоинвесторыПродвинутый__локалбиткоинУрок 4. Покупка биткоинов онлайн с карты_ контроль заявок.m2ts
Format                         : BDAV
Format/Info                    : Blu-ray Video
File size                      : 134 MiB
Duration                       : 3 min 24 s
Overall bit rate mode          : Variable
Overall bit rate               : 5 482 kb/s
Maximum Overall bit rate       : 18.0 Mb/s

Video
ID                             : 4113 (0x1011)
Menu ID                        : 1 (0x1)
Format                         : AVC
Format/Info                    : Advanced Video Codec
Format profile                 : High@L4
Format settings, CABAC         : Yes
Format settings, ReFrames      : 2 frames
Codec ID                       : 27
Duration                       : 3 min 24 s
Bit rate mode                  : Variable
Bit rate                       : 5 064 kb/s
Maximum bit rate               : 16.0 Mb/s
Width                          : 1 920 pixels
Height                         : 1 080 pixels
Display aspect ratio           : 16:9
Frame rate                     : 25.000 FPS
Color space                    : YUV
Chroma subsampling             : 4:2:0
Bit depth                      : 8 bits
Scan type                      : Interlaced
Scan type, store method        : Separated fields
Scan order                     : Top Field First
Bits/(Pixel*Frame)             : 0.098
Stream size                    : 123 MiB (92%)

Audio
ID                             : 4352 (0x1100)
Menu ID                        : 1 (0x1)
Format                         : AC-3
Format/Info                    : Audio Coding 3
Mode extension                 : CM (complete main)
Format settings, Endianness    : Big
Codec ID                       : 129
Duration                       : 3 min 24 s
Bit rate mode                  : Constant
Bit rate                       : 192 kb/s
Channel(s)                     : 2 channels
Channel positions              : Front: L R
Sampling rate                  : 48.0 kHz
Frame rate                     : 31.250 FPS (1536 spf)
Bit depth                      : 16 bits
Compression mode               : Lossy
Delay relative to video        : -40 ms
Stream size                    : 4.68 MiB (3%)

General
ID                             : 0 (0x0)
Complete name                  : C:Дмитрий Орлов - КриптоинвесторыПродвинутый__локалбиткоинУрок 5. Прибыль за пол дня при условии нескольких сделок.m2ts
Format                         : BDAV
Format/Info                    : Blu-ray Video
File size                      : 89.9 MiB
Duration                       : 2 min 40 s
Overall bit rate mode          : Variable
Overall bit rate               : 4 702 kb/s
Maximum Overall bit rate       : 18.0 Mb/s

Video
ID                             : 4113 (0x1011)
Menu ID                        : 1 (0x1)
Format                         : AVC
Format/Info                    : Advanced Video Codec
Format profile                 : High@L4
Format settings, CABAC         : Yes
Format settings, ReFrames      : 2 frames
Codec ID                       : 27
Duration                       : 2 min 40 s
Bit rate mode                  : Variable
Bit rate                       : 4 315 kb/s
Maximum bit rate               : 16.0 Mb/s
Width                          : 1 920 pixels
Height                         : 1 080 pixels
Display aspect ratio           : 16:9
Frame rate                     : 25.000 FPS
Color space                    : YUV
Chroma subsampling             : 4:2:0
Bit depth                      : 8 bits
Scan type                      : Interlaced
Scan type, store method        : Separated fields
Scan order                     : Top Field First
Bits/(Pixel*Frame)             : 0.083
Stream size                    : 82.4 MiB (92%)

Audio
ID                             : 4352 (0x1100)
Menu ID                        : 1 (0x1)
Format                         : AC-3
Format/Info                    : Audio Coding 3
Mode extension                 : CM (complete main)
Format settings, Endianness    : Big
Codec ID                       : 129
Duration                       : 2 min 40 s
Bit rate mode                  : Constant
Bit rate                       : 192 kb/s
Channel(s)                     : 2 channels
Channel positions              : Front: L R
Sampling rate                  : 48.0 kHz
Frame rate                     : 31.250 FPS (1536 spf)
Bit depth                      : 16 bits
Compression mode               : Lossy
Delay relative to video        : -40 ms
Stream size                    : 3.67 MiB (4%)

General
ID                             : 0 (0x0)
Complete name                  : C:Дмитрий Орлов - КриптоинвесторыПродвинутый__локалбиткоинУрок 6. Результат работы за сутки работы на локал биткоин.m2ts
Format                         : BDAV
Format/Info                    : Blu-ray Video
File size                      : 19.5 MiB
Duration                       : 55 s 962 ms
Overall bit rate mode          : Variable
Overall bit rate               : 2 928 kb/s
Maximum Overall bit rate       : 18.0 Mb/s

Video
ID                             : 4113 (0x1011)
Menu ID                        : 1 (0x1)
Format                         : AVC
Format/Info                    : Advanced Video Codec
Format profile                 : High@L4
Format settings, CABAC         : Yes
Format settings, ReFrames      : 2 frames
Codec ID                       : 27
Duration                       : 55 s 800 ms
Bit rate mode                  : Variable
Bit rate                       : 2 611 kb/s
Maximum bit rate               : 16.0 Mb/s
Width                          : 1 920 pixels
Height                         : 1 080 pixels
Display aspect ratio           : 16:9
Frame rate                     : 25.000 FPS
Color space                    : YUV
Chroma subsampling             : 4:2:0
Bit depth                      : 8 bits
Scan type                      : Interlaced
Scan type, store method        : Separated fields
Scan order                     : Top Field First
Bits/(Pixel*Frame)             : 0.050
Stream size                    : 17.4 MiB (89%)

Audio
ID                             : 4352 (0x1100)
Menu ID                        : 1 (0x1)
Format                         : AC-3
Format/Info                    : Audio Coding 3
Mode extension                 : CM (complete main)
Format settings, Endianness    : Big
Codec ID                       : 129
Duration                       : 55 s 776 ms
Bit rate mode                  : Constant
Bit rate                       : 192 kb/s
Channel(s)                     : 2 channels
Channel positions              : Front: L R
Sampling rate                  : 48.0 kHz
Frame rate                     : 31.250 FPS (1536 spf)
Bit depth                      : 16 bits
Compression mode               : Lossy
Delay relative to video        : -40 ms
Stream size                    : 1.28 MiB (7%)

Скриншоты:




Время раздачи: Пн-Пт с 18:00 до 22:00 (до появления первых 3-5 скачавших)

Постеры

Соцсети

 

Статистика

Автор: Солнышко
Добавлен: 05 ноя 2017, 22:49
Размер: 6.29 ГБ
Размер: 6 757 898 655 байт
Сидеров: 8
Личеров: 0
Скачали: 1
Здоровье: 100%
Раздающих: 100%
Скорость скачивания: 0 байт/сек
Скорость раздачи: 0 байт/сек
Последний сидер: 8 дней 9 часов 7 минут 17 секунд назад
Последний личер: 1 год 14 дней 6 часов 47 минут 14 секунд назад
Приватный: Нет (DHT включён)
Бизнес, экономика и финансы Скачать торрент
Скачать торрент
[ Размер 24.65 КБ / Просмотров 5 ]

Поделиться



Вернуться в Бизнес, экономика и финансы