Секреты красивой и здоровой кожи: уход за руками и ногами (Игорь Пелинский) [2009, красота, здоровье, косметология, масс

Маски, уход за телом, чистая и здоровая кожа

<t>Оценка торрента</t>

5
0
Голосов нет
4
0
Голосов нет
3
0
Голосов нет
2
0
Голосов нет
1
0
Голосов нет
 
Всего голосов: 0

Торрент Сидеров Личеров Размер
torrent_2069.torrent
19 12 2.19 ГБ
Аватара пользователя
Таточка
Сообщения: 13173
Зарегистрирован: 08 янв 2012, 19:02

Секреты красивой и здоровой кожи: уход за руками и ногами (Игорь Пелинский) [2009, красота, здоровье, косметология, масс

Сообщение Таточка » 27 янв 2012, 00:03

Секреты красивой и здоровой кожи: уход за руками и ногами



Перевод: Не требуется, cубтитры: отсутствуют
Формат: DVD5, DVD Video, MPEG2, AC3
Страна: Россия
Режиссер: Игорь Пелинский
Жанр: красота, здоровье, косметология, массаж
Продолжительность: 00:46:59
Год выпуска: 2009
В ролях: Анастасия Семко

Описание: К сожалению, безжалостные следы времени отражаются, прежде всего, на лице. И поэтому, как правило, большинство представительниц прекрасного пола уделяют внимание, в основном, косметическому уходу за лицом. При этом забывают, что и руки могут рассказать не меньше о своей владелице, ведь кожа на руках при отсутствии надлежащего ухода стареет быстрее, чем на других частях тела. Не менее тщательного ухода заслуживают и ноги: именно они целый день принимают на себя всю нагрузку нашего веса. Подсчитано, что в обычный день каждый человек делает 6000 – 8000 шагов, а за всю жизнь несколько раз обходит пешком Землю! В данной видеопрограмме подробно рассказывается и показывается, как бороться с главными проблемами ног – сухостью кожи и потливостью.

Видео: 720x576 (PAL 16:9),25,000 fps,MPEG 2, ~5322kbps avg,0.513bit/pixel
Аудио: 48.0 kHz, AC3, (Front: L R) , 2 ch ~ 192 Kbps avg

Общее
Полное имя: E:\Уход за руками и ногами\VIDEO_TS\VTS_01_1.VOB
Формат: MPEG-PS
Размер файла: 1024 Мбайт
Продолжительность: 25 м.
Общий поток: 5626 Кбит/сек

Видео
Идентификатор: 224 (0xE0)
Формат: MPEG Video
Версия формата: Version 2
Профиль формата: Main@Main
Параметр BVOP формата: Да
Параметр матрицы формата: По умолчанию
Параметры GOP формата: M=3, N=15
Продолжительность: 25 м.
Вид битрейта: Переменный
Битрейт: 5322 Кбит/сек
Номинальный битрейт: 8000 Кбит/сек
Ширина: 720 пикс.
Высота: 576 пикс.
Соотношение сторон: 16:9
Частота кадров: 25,000 кадр/сек
Стандарт вещания: PAL
Цветовое пространство: YUV
Подвыборка цветности: 4:2:0
Битовая глубина: 8 бит
Тип развёртки: Чересстрочная
Порядок развёртки: Верхнее поле первое
Метод сжатия: С потерями
Бит/(Пиксели*Кадры): 0.513
Размер потока: 969 Мбайт (95%)

Аудио
Идентификатор: 128 (0x80)
Формат: AC-3
Формат/Информация: Audio Coding 3
Расширение режима: CM (complete main)
Продолжительность: 25 м.
Вид битрейта: Постоянный
Битрейт: 192 Кбит/сек
Канал(ы): 2 канала(ов)
Расположение каналов: Front: L R
Частота: 48,0 КГц
Битовая глубина: 16 бит
Метод сжатия: С потерями
Размер потока: 34,9 Мбайт (3%)

Меню
Превью - увеличение по клику:

сможете узнать, какой ежедневный уход необходим рукам, чтобы они сохранили молодость и красоту,
- научитесь готовить маски и пилинги в домашних условиях,
- ознакомитесь с тем, как правильно наносить крем,
- научитесь делать массаж кистей.






Поделиться:
У вас нет необходимых прав для просмотра вложений в этом сообщении.