Видео


Сообщение

Видео Секреты красивой и здоровой кожи: Не дайте морщинам и шанса, или как стать моложе (Игорь Пелинский) [2009, красота, здоровье, косметология, массаж, DVD5] / Салон красоты

Сообщение Таточка » 27 янв 2012, 00:04

Секреты красивой и здоровой кожи: Не дайте морщинам и шанса, или как стать моложе



Перевод: Не требуется, cубтитры: отсутствуют
Формат: DVD5, DVD Video, MPEG2, AC3
Страна: Россия
Режиссер: Игорь Пелинский
Жанр: красота, здоровье, косметология, массаж
Продолжительность: 00:53:00
Год выпуска: 2009
В ролях: Анастасия Семко

Описание: Все женщины, в любом возрасте, желают выглядеть молодо и привлекательно! Но… Возраст дает о себе знать... Морщины... Рано или поздно, они все-таки появляются на лице каждой представительницы прекрасного пола, предательски выдавая возраст... ;(

Первые морщинки появляются уже в 25 – 30 лет (а, иногда, и раньше!), и с каждым годом они становятся все глубже и заметнее, меняя наше лицо не в лучшую сторону… Этот процесс, естественно, совсем не радует нас, женщин. Конечно же, можно рассчитывать на чудеса пластической хирургии, хотя такую проблему можно решить и безоперационным путем.


Видео: 720x576 (PAL 16:9),25,000 fps,MPEG 2, ~5587kbps avg,0.539bit/pixel
Аудио: 48.0 kHz, AC3, (Front: L R) , 2 ch ~ 192 Kbps avg

Доп. информация: Видеофильм «Не дайте морщинам и шанса, или Как стать моложе» содержит массу полезных, интересных советов по уходу за собой в домашних условиях!


Общее
Полное имя: E:\Не дайте морщинам ни шанса!\VIDEO_TS\VTS_02_1.VOB
Формат: MPEG-PS
Размер файла: 1024 Мбайт
Продолжительность: 24 м.
Общий поток: 5897 Кбит/сек

Видео
Идентификатор: 224 (0xE0)
Формат: MPEG Video
Версия формата: Version 2
Профиль формата: Main@Main
Параметр BVOP формата: Да
Параметр матрицы формата: По умолчанию
Параметры GOP формата: M=3, N=15
Продолжительность: 24 м.
Вид битрейта: Переменный
Битрейт: 5587 Кбит/сек
Номинальный битрейт: 8000 Кбит/сек
Ширина: 720 пикс.
Высота: 576 пикс.
Соотношение сторон: 16:9
Частота кадров: 25,000 кадр/сек
Стандарт вещания: PAL
Цветовое пространство: YUV
Подвыборка цветности: 4:2:0
Битовая глубина: 8 бит
Тип развёртки: Чересстрочная
Порядок развёртки: Верхнее поле первое
Метод сжатия: С потерями
Бит/(Пиксели*Кадры): 0.539
Размер потока: 970 Мбайт (95%)

Аудио
Идентификатор: 128 (0x80)
Формат: AC-3
Формат/Информация: Audio Coding 3
Расширение режима: CM (complete main)
Продолжительность: 24 м.
Вид битрейта: Постоянный
Битрейт: 192 Кбит/сек
Канал(ы): 2 канала(ов)
Расположение каналов: Front: L R
Частота: 48,0 КГц
Битовая глубина: 16 бит
Метод сжатия: С потерями
Размер потока: 33,3 Мбайт (3%)








Превью - увеличение по клику:








* как проводить очищение и тонизацию кожи лица,
* какие пилинги и компрессы можно приготовить в домашних условиях,
* как бороться с отечностью лица,
* что способствует старению кожи,
* какой интенсивный антивозрастной уход необходим, чтобы уменьшить количество морщин на лице и шее, а также предотвратить их раннее появление,
* какой массаж поможет избавиться от морщин,
* каким рекомендациям нужно следовать, чтобы надолго сохранить молодость и красоту лица!!!



Поделиться:

Постеры

Соцсети

 

Статистика

Автор: Таточка
Добавлен: 27 янв 2012, 00:04
Размер: 2.4 ГБ
Размер: 2 577 098 752 байт
Сидеров: 14
Личеров: 5
Скачали: 12
Здоровье: 100%
Раздающих: 100%
Скорость скачивания: 0 байт/сек
Скорость раздачи: 0 байт/сек
Последний сидер: 27 дней 16 часов 48 минут 18 секунд назад
Последний личер: 27 дней 16 часов 48 минут 18 секунд назад
Приватный: Нет (DHT включён)
Скачать торрент
Скачать торрент
[ Размер 13.41 КБ / Просмотров 18 ]

Поделиться



  • Похожие торренты
    Ответы
    Просмотры
    Последнее сообщение

Вернуться в Уход за кожей