Сообщение

Специалист | Сертифицированный администратор Windows Server 2012 R2 (2014) PCRec [H.264]

Сообщение Stepan » 06 ноя 2017, 09:30

Специалист | Сертифицированный администратор Windows Server 2012 R2 (2014) PCRec [H.264]

Автор (режиссер): Специалист
Жанр: Windows Server 2012, Системное администрирование

Описание:
Представляем комплексную программу обучения «Сертифицированный администратор Windows Server 2012 R2 MCSA: Windows Server 2012 R2», состоящую из трех курсов, различного уровня сложности. Программа нацелена на подготовку квалифицированных специалистов международного уровня, претендующих на престижную должность и высокую оплату труда.

Продолжительность: 46:34:35
Качество видео: PCRec

Видео: AVC/H.264, 1280-1024x1024-768, ~98-120 Kbps
Аудио: MP3, 2 ch, 128 Kbps
Код: Выделить всё
General
Complete name                  : .\[Специалист] Сертифицированный администратор Windows Server 2012 R2 (MCSA Windows Server 2012 R2) (2014)\М20411D - Администрирование Windows Server 2012 R2 (2014)\m20411D_22.05.avi
Format                         : AVI
Format/Info                    : Audio Video Interleave
File size                      : 324 MiB
Duration                       : 2 h 55 min
Overall bit rate               : 258 kb/s

Video
ID                             : 0
Format                         : AVC
Format/Info                    : Advanced Video Codec
Format profile                 :
Format settings, CABAC         : Yes
Format settings, ReFrames      : 4 frames
Codec ID                       : H264
Duration                       : 2 h 55 min
Bit rate                       : 120 kb/s
Width                          : 1 280 pixels
Height                         : 1 024 pixels
Display aspect ratio           : 5:4
Frame rate                     : 25.000 FPS
Color space                    : YUV
Chroma subsampling             : 4:2:0
Bit depth                      : 8 bits
Scan type                      : Progressive
Bits/(Pixel*Frame)             : 0.004
Stream size                    : 151 MiB (47%)
Writing library                : x264 core 146 r2538bm 121396c
Encoding settings              : cabac=1 / ref=3 / deblock=1:0:0 / analyse=0x3:0x113 / me=hex / subme=7 / psy=1 / psy_rd=1.00:0.00 / mixed_ref=1 / me_range=16 / chroma_me=1 / trellis=1 / 8x8dct=1 / cqm=0 / deadzone=21,11 / fast_pskip=1 / chroma_qp_offset=-2 / threads=6 / lookahead_threads=1 / sliced_threads=0 / nr=0 / decimate=1 / interlaced=0 / bluray_compat=0 / constrained_intra=0 / bframes=3 / b_pyramid=2 / b_adapt=1 / b_bias=0 / direct=1 / weightb=1 / open_gop=0 / weightp=2 / keyint=250 / keyint_min=25 / scenecut=40 / intra_refresh=0 / rc_lookahead=40 / rc=crf / mbtree=1 / crf=20.0 / qcomp=0.60 / qpmin=0 / qpmax=69 / qpstep=4 / ip_ratio=1.40 / aq=1:1.00

Audio
ID                             : 1
Format                         : MPEG Audio
Format version                 : Version 1
Format profile                 : Layer 3
Codec ID                       : 55
Codec ID/Hint                  : MP3
Duration                       : 2 h 55 min
Bit rate mode                  : Constant
Bit rate                       : 128 kb/s
Channel(s)                     : 2 channels
Sampling rate                  : 44.1 kHz
Compression mode               : Lossy
Stream size                    : 161 MiB (50%)
Alignment                      : Split accross interleaves
Interleave, duration           : 40  ms (1.00 video frame)
Interleave, preload duration   : 1909  ms

General
Complete name                  : .\[Специалист] Сертифицированный администратор Windows Server 2012 R2 (MCSA Windows Server 2012 R2) (2014)\М20410D - Установка и настройка Windows Server 2012 R2 (2014)\m20410D_14.05.avi
Format                         : AVI
Format/Info                    : Audio Video Interleave
File size                      : 372 MiB
Duration                       : 3 h 40 min
Overall bit rate               : 236 kb/s

Video
ID                             : 0
Format                         : AVC
Format/Info                    : Advanced Video Codec
Format profile                 :
Format settings, CABAC         : Yes
Format settings, ReFrames      : 4 frames
Codec ID                       : H264
Duration                       : 3 h 40 min
Bit rate                       : 98.6 kb/s
Width                          : 1 024 pixels
Height                         : 768 pixels
Display aspect ratio           : 4:3
Frame rate                     : 25.000 FPS
Color space                    : YUV
Chroma subsampling             : 4:2:0
Bit depth                      : 8 bits
Scan type                      : Progressive
Bits/(Pixel*Frame)             : 0.005
Stream size                    : 155 MiB (42%)
Writing library                : x264 core 146 r2538bm 121396c
Encoding settings              : cabac=1 / ref=3 / deblock=1:0:0 / analyse=0x3:0x113 / me=hex / subme=7 / psy=1 / psy_rd=1.00:0.00 / mixed_ref=1 / me_range=16 / chroma_me=1 / trellis=1 / 8x8dct=1 / cqm=0 / deadzone=21,11 / fast_pskip=1 / chroma_qp_offset=-2 / threads=6 / lookahead_threads=1 / sliced_threads=0 / nr=0 / decimate=1 / interlaced=0 / bluray_compat=0 / constrained_intra=0 / bframes=3 / b_pyramid=2 / b_adapt=1 / b_bias=0 / direct=1 / weightb=1 / open_gop=0 / weightp=2 / keyint=250 / keyint_min=25 / scenecut=40 / intra_refresh=0 / rc_lookahead=40 / rc=crf / mbtree=1 / crf=21.0 / qcomp=0.60 / qpmin=0 / qpmax=69 / qpstep=4 / ip_ratio=1.40 / aq=1:1.00

Audio
ID                             : 1
Format                         : MPEG Audio
Format version                 : Version 1
Format profile                 : Layer 3
Codec ID                       : 55
Codec ID/Hint                  : MP3
Duration                       : 3 h 40 min
Bit rate mode                  : Constant
Bit rate                       : 128 kb/s
Channel(s)                     : 2 channels
Sampling rate                  : 44.1 kHz
Compression mode               : Lossy
Stream size                    : 202 MiB (54%)
Alignment                      : Split accross interleaves
Interleave, duration           : 40  ms (1.01 video frame)
Interleave, preload duration   : 1910  ms
В ходе обучения, Вы освоите начальное внедрение и настройку основных сервисов, включая доменные службы каталога, сетевые сервисы и настройку Microsoft Hyper-V Server 2012 R2. Затем продолжите совершенствовать умения и навыки, переходя к изучению более сложных вещей, таких как настройка и устранение неполадок процесса разрешения имен, управления пользователями и группами в Службе каталога, управления групповыми политиками, реализации решений удаленного доступа и доступа к сетевой среде, управления развертыванием сервера из образа, управления обновлениями и оптимизации производительности. А также сможете дополнить набор сервисов, установленных сразу после развертывания Windows Server 2012, научитесь администрировать доменную среду на базе Windows Server 2012.

Занятия проходят в виде лекций, демонстраций наглядных примеров, самостоятельных и лабораторных работ. Каждый теоретический блок обязательно закрепляется при помощи большого количества практики. Насыщенная программа, интереснейший учебный материал, системный подход к обучению – все это позволяет продуктивно усвоить сложную информацию, приобрести ценные знания и навыки и получить востребованную на международном рынке труда специальность.

Скриншоты:



Время раздачи: 24/7 (круглосуточно) (до появления первых 3-5 скачавших)

Постеры

Соцсети

 

Статистика

Автор: Stepan
Добавлен: 06 ноя 2017, 09:30
Размер: 5.07 ГБ
Размер: 5 447 069 462 байт
Сидеров: 0
Личеров: 2
Скачали: 4
Здоровье: ???%
Статус:
Скорость скачивания: 0 байт/сек
Скорость раздачи: 0 байт/сек
Последний сидер: 3 дня 6 часов 22 минуты 21 секунду назад
Последний личер: 5 дней 21 час 12 минут 9 секунд назад
Приватный: Нет (DHT включён)
Скачать торрент
Скачать торрент
[ Размер 17.66 КБ / Просмотров 102 ]

Поделиться



Вернуться в Разное (Компьютер)