Сообщение

Игорь Пелинский | Йога-аюрведа: Капха тип [2010] DVDRip

Сообщение Stepan » 06 ноя 2017, 11:08

Игорь Пелинский | Йога-аюрведа: Капха тип [2010] DVDRip

Производство: Россия / Sova Film
Жанр: Обучающая видеопрограмма

Режиссер: Игорь Пелинский
Ведущий: Татьяна Дудина

Описание:
Капха – один из трех типов конституции тела в традиции Аюрведа. Образующие элементы: земля и вода. Телосложение: широкое, хорошо сложенное, крупное. Посмотрите этот фильм, в нем показаны специальные асаны йоги, которые соответствуют вашему индивидуальному типу тела, и будут максимально полезны именно для вашего здоровья. Узнайте свою врожденную конституцию, научитесь жить в соответствии с ней, поддерживать ее в гармонии! В этом – основа аюрведического секрета непреходящей красоты и здоровья, а также долгой и счастливой жизни!

Продолжительность: 01:35:44
Качество видео: DVDRip
Видео: 640x360, XviD, ~1471 kbps
Аудио: MP3, 2 ch, ~121 kbps
Йога и аюрведа – родственные практики, которые возникли в древней Индии и имеют одни и те же корни. Йога – это духовный путь саморазвития и самореализации, цель которого – полностью проявить свой потенциал в жизни. Аюрведа – традиционная индийская медицина, которая учит тому, как сохранить молодость, красоту и здоровье. И не просто сохранить, а возродить вновь! Совместно йога и аюрведа охватывают широкий спектр оздоровительных методик в соответствии с уникальной конституцией каждого из нас. Такая конституция определяется в аюрведе как доша, их существует три: вата, питта, капха. Это три основные фундаментальные жизненные силы, которые регулируют все функции организма. Человек здоров, когда доши находятся в сбалансированном состоянии.
Код:
Код: Выделить всё
General
Complete name                    : D:\Йога-аюрведа Капха тип 2010.avi
Format                           : AVI
Format/Info                      : Audio Video Interleave
File size                        : 1.07 GiB
Duration                         : 1h 35mn
Overall bit rate                 : 1 605 Kbps
Writing application              : VirtualDubMod 1.5.10.2 (build 2540/release)
Writing library                  : VirtualDubMod build 2540/release

Video
ID                               : 0
Format                           : MPEG-4 Visual
Format profile                   : Advanced Simple@L5
Format settings, BVOP            : 1
Format settings, QPel            : No
Format settings, GMC             : No warppoints
Format settings, Matrix          : Default (MPEG)
Codec ID                         : XVID
Codec ID/Hint                    : XviD
Duration                         : 1h 35mn
Bit rate                         : 1 471 Kbps
Width                            : 640 pixels
Height                           : 360 pixels
Display aspect ratio             : 16:9
Frame rate                       : 25.000 fps
Color space                      : YUV
Chroma subsampling               : 4:2:0
Bit depth                        : 8 bits
Scan type                        : Progressive
Compression mode                 : Lossy
Bits/(Pixel*Frame)               : 0.255
Stream size                      : 1 007 MiB (92%)
Writing library                  : XviD 1.2.1 (UTC 2008-12-04)

Audio
ID                               : 1
Format                           : MPEG Audio
Format version                   : Version 1
Format profile                   : Layer 3
Codec ID                         : 55
Codec ID/Hint                    : MP3
Duration                         : 1h 35mn
Bit rate mode                    : Variable
Bit rate                         : 121 Kbps
Nominal bit rate                 : 128 Kbps
Channel(s)                       : 2 channels
Sampling rate                    : 48.0 KHz
Compression mode                 : Lossy
Stream size                      : 82.8 MiB (8%)
Alignment                        : Aligned on interleaves
Interleave, duration             : 24 ms (0.60 video frame)
Interleave, preload duration     : 524 ms
Writing library                  : LAME3.98r
Encoding settings                : -m s -V 4 -q 2 -lowpass 17 --abr 128

Скриншоты:


Время раздачи: 24/7

Постеры

Соцсети

 

Статистика

Автор: Stepan
Добавлен: 06 ноя 2017, 11:08
Размер: 1.07 ГБ
Размер: 1 152 393 216 байт
Сидеров: 0
Личеров: 1
Скачали: 0
Здоровье: ???%
Статус:
Скорость скачивания: 0 байт/сек
Скорость раздачи: 0 байт/сек
Последний сидер: Нет
Последний личер: 25 дней 10 часов 11 минут 49 секунд назад
Приватный: Нет (DHT включён)
Здоровье и спорт Скачать торрент
Скачать торрент
[ Размер 11.61 КБ / Просмотров 0 ]

Поделиться



  • Похожие торренты
    Ответы
    Просмотры
    Последнее сообщение

Вернуться в Здоровье и спорт