Сообщение

Daily Burn | Cardio Sculpt (2016) HDTVRip [H.264/720p-LQ] [EN]

Сообщение Stepan » 06 ноя 2017, 11:15

Daily Burn | Cardio Sculpt (2016) HDTVRip [H.264/720p-LQ] [EN]

Автор (режиссер): Daily Burn
Производство: США
Жанр: Фитнес

Описание:
Cardio Sculpt - это программа по тренировке всего тела от Daily Burn, которая поможет сжечь жир и обрести красивое, стройное тело.

Продолжительность: 08:34:31
Качество видео: HDTVRip
Перевод: Отсутствует
Язык озвучки: Английский

Видео: AVC/H.264, 1280х720, ~1980 Kbps
Аудио: AAC, 2 ch, 106 Kbps, VBR
Код: Выделить всё
Daily Burn - Cardio Sculpt\Ania Garcia - BHT (Butt, Hips, Thighs). Cardio Sculpt Силовая тренировка для бедер и ягодиц (гантели).mp4
Format                      : MPEG-4
Format profile              : Base Media
Codec ID                    : isom (isom/iso2/avc1/mp41)
File size                   : 484 MiB
Duration                    : 32 min 20 s
Overall bit rate mode       : Variable
Overall bit rate            : 2 092 kb/s
Writing application         : Lavf56.25.101

Video
ID                          : 1
Format                      : AVC
Format/Info                 : Advanced Video Codec
Format profile              :
Format settings             : CABAC / 4 Ref Frames
Format settings, CABAC      : Yes
Format settings, RefFrames  : 4 frames
Codec ID                    : avc1
Codec ID/Info               : Advanced Video Coding
Duration                    : 32 min 20 s
Bit rate                    : 1 980 kb/s
Width                       : 1 280 pixels
Height                      : 720 pixels
Display aspect ratio        : 16:9
Frame rate mode             : Constant
Frame rate                  : 23.976 (24000/1001) FPS
Color space                 : YUV
Chroma subsampling          : 4:2:0
Bit depth                   : 8 bits
Scan type                   : Progressive
Bits/(Pixel*Frame)          : 0.090
Stream size                 : 458 MiB (95%)
Writing library             : x264 core 142
Encoding settings           : cabac=1 / ref=3 / deblock=1:0:0 / analyse=0x3:0x113 / me=hex / subme=7 / psy=1 / psy_rd=1.00:0.00 / mixed_ref=1 / me_range=16 / chroma_me=1 / trellis=1 / 8x8dct=1 / cqm=0 / deadzone=21,11 / fast_pskip=1 / chroma_qp_offset=-2 / threads=6 / lookahead_threads=1 / sliced_threads=0 / nr=0 / decimate=1 / interlaced=0 / bluray_compat=0 / constrained_intra=0 / bframes=3 / b_pyramid=2 / b_adapt=1 / b_bias=0 / direct=1 / weightb=1 / open_gop=0 / weightp=2 / keyint=24 / keyint_min=2 / scenecut=40 / intra_refresh=0 / rc_lookahead=24 / rc=2pass / mbtree=1 / bitrate=1980 / ratetol=1.0 / qcomp=0.60 / qpmin=0 / qpmax=69 / qpstep=4 / cplxblur=20.0 / qblur=0.5 / ip_ratio=1.40 / aq=1:1.00

Audio
ID                          : 2
Format                      : AAC
Format/Info                 : Advanced Audio Codec
Format profile              : LC
Codec ID                    : mp4a-40-2
Duration                    : 32 min 20 s
Bit rate mode               : Variable
Bit rate                    : 106 kb/s
Maximum bit rate            : 192 kb/s
Channel(s)                  : 2 channels
Channel positions           : Front: L R
Sampling rate               : 44.1 kHz
Frame rate                  : 43.066 FPS (1024 SPF)
Compression mode            : Lossy
Stream size                 : 24.5 MiB (5%)
Default                     : Yes
Alternate group             : 1
Anja Garcia - BHT (Butt, Hips, Thighs). Силовая тренировка для бедер и ягодиц (гантели) (00:32:20).
Anja Garcia - Box and Burn. Кардио-тренировка на основе бокса (00:40:25).
Anja Garcia - Cardio Ball. Аэробно-силовая тренировка с медболом или гантелью (00:42:22).
Anja Garcia - Cardio Sports Drills. Интенсивная кардио-тренировка (00:38:02).
Cody Storey - Mobility Yoga (00:50:46).
Judi Brown - Blast 'N Burn. Кардио-тренировка (медбол или гантель) (00:33:44).
Judi Brown - Cardio Sculpt. Аэробно-силовая тренировка (00:32:05).
Judi Brown - Kickboxing Interval Training. Интенсивная интервальная тренировка на основе кикбоксингa (00:34:28).
Judi Brown - Lean Abs. Аэробно-силовая тренировка для мышц живота и кора (00:27:37).
Judi Brown - Supreme Stretch. Растяжка всего тела (00:18:13).
Keaira Lashae - Hydraulic Lower Body. Аэробно-силовая тренировка для бедер и ягодиц (00:51:03).
Keaira LaShea - Kickin It with Keaira. Кардио-тренировка на основе кикбоксинга (00:37:45).
Keaira LaShea - Upperbody Rollercoaster. Тренировка для верхней части тела (00:45:34).
Calendar part.1 - календарь тренировок, часть 1 (jpg).
Calendar part.2 - календарь тренировок, часть 2 (jpg).

Скриншоты:



Время раздачи: с 17 до 22.00 (до появления первых 3-5 скачавших)

Постеры

Соцсети

 

Статистика

Автор: Stepan
Добавлен: 06 ноя 2017, 11:15
Размер: 7.19 ГБ
Размер: 7 717 505 623 байт
Сидеров: 0
Личеров: 1
Скачали: 0
Здоровье: ???%
Статус:
Скорость скачивания: 0 байт/сек
Скорость раздачи: 0 байт/сек
Последний сидер: Нет
Последний личер: 24 дня 2 часа 48 минут 59 секунд назад
Приватный: Нет (DHT включён)
Здоровье и спорт Скачать торрент
Скачать торрент
[ Размер 577.61 КБ / Просмотров 2 ]

Поделиться



  • Похожие торренты
    Ответы
    Просмотры
    Последнее сообщение

Вернуться в Здоровье и спорт