Сообщение

Geekbrains | Профессия Разработчик .Net (2016) PCRec [H.264/720p-LQ]

Сообщение Stepan » 19 янв 2018, 01:24

Geekbrains | Профессия Разработчик .Net (2016) PCRec [H.264/720p-LQ]

Автор (режиссер): Geekbrains
Производство: Geekbrains
Жанр: Программирование

Описание:
Создавайте приложения для Windows - самой распространенной операционной системы, разрабатывайте web-сайты с помощью Net Framework или пишите мобильные приложения для Windows Phone. Изучив C#, можно работать сразу в трёх направлениях, ведь он востребован везде!

C# Уровень 1. Базовый курс
C# Уровень 2. Продвинутый курс
С# ASP.NET MVC. Cоздание веб-сайтов и порталов

Продолжительность: 45:00:00
Качество видео: PCRec

Видео: AVC/H.264, 1280х720, ~335 Kbps
Аудио: AAC, 2 ch, 64 Kbps
Код: Выделить всё
Формат                                   : MPEG-4
Профиль формата                          : Base Media
Идентификатор кодека                     : isom (isom/iso2/avc1/mp41)
Размер файла                             : 366 Мбайт
Продолжительность                        : 2 ч. 5 м.
Общий поток                              : 406 Кбит/сек
Программа кодирования                    : Lavf54.29.104

Видео
Идентификатор                            : 1
Формат                                   : AVC
Формат/Информация                        : Advanced Video Codec
Профиль формата                          :
Параметр CABAC формата                   : Да
Параметр RefFrames формата               : 4 кадра
Идентификатор кодека                     : avc1
Идентификатор кодека/Информация          : Advanced Video Coding
Продолжительность                        : 2 ч. 5 м.
Битрейт                                  : 335 Кбит/сек
Номинальный битрейт                      : 384 Кбит/сек
Ширина                                   : 1280 пикселей
Высота                                   : 720 пикселей
Соотношение сторон                       : 16:9
Режим частоты кадров                     : Переменный
Частота кадров                           : 15,000 кадров/сек
Минимальная частота кадров               : 14,925 кадров/сек
Максимальная частота кадров              : 15,152 кадров/сек
Цветовое пространство                    : YUV
Субдискретизация насыщенности            : 4:2:0
Битовая глубина                          : 8 бит
Тип развёртки                            : Прогрессивная
Бит/(Пиксели*Кадры)                      : 0.024
Размер потока                            : 302 Мбайт (83%)
Библиотека кодирования                   : x264 core 132
Настройки программы                      : cabac=1 / ref=1 / deblock=1:0:0 / analyse=0x3:0x113 / me=hex / subme=2 / psy=1 / psy_rd=1.00:0.00 / mixed_ref=0 / me_range=16 / chroma_me=1 / trellis=0 / 8x8dct=1 / cqm=0 / deadzone=21,11 / fast_pskip=1 / chroma_qp_offset=0 / threads=4 / lookahead_threads=1 / sliced_threads=0 / nr=0 / decimate=1 / interlaced=0 / bluray_compat=0 / constrained_intra=0 / bframes=3 / b_pyramid=2 / b_adapt=1 / b_bias=0 / direct=1 / weightb=1 / open_gop=0 / weightp=1 / keyint=30 / keyint_min=3 / scenecut=40 / intra_refresh=0 / rc_lookahead=10 / rc=cbr / mbtree=1 / bitrate=384 / ratetol=1.0 / qcomp=0.60 / qpmin=0 / qpmax=69 / qpstep=4 / vbv_maxrate=384 / vbv_bufsize=512 / nal_hrd=none / ip_ratio=1.40 / aq=1:1.00

Аудио
Идентификатор                            : 2
Формат                                   : AAC
Формат/Информация                        : Advanced Audio Codec
Профиль формата                          : LC
Идентификатор кодека                     : 40
Продолжительность                        : 2 ч. 5 м.
Вид битрейта                             : Постоянный
Битрейт                                  : 64,0 Кбит/сек
Каналы                                   : 2 канала
Расположение каналов                     : Front: L R
Частота                                  : 44,1 КГц
Частота кадров                           : 43,066 кадра/сек (1024 SPF)
Метод сжатия                             : С потерями
Размер потока                            : 57,7 Мбайт (16%)
Default                                  : Да
AlternateGroup/String                    : 1

Скриншоты:



Время раздачи: c 9:00 (до появления первых 3-5 скачавших)

Постеры

Соцсети

 

Статистика

Автор: Stepan
Добавлен: 19 янв 2018, 01:24
Размер: 8.6 ГБ
Размер: 9 232 724 906 байт
Сидеров: 1
Личеров: 0
Скачали: 0
Здоровье: 100%
Раздающих: 100%
Статус:
Скорость скачивания: 0 байт/сек
Скорость раздачи: 0 байт/сек
Последний сидер: 1 день 2 часа 6 минут 25 секунд назад
Последний личер: Нет
Приватный: Нет (DHT включён)
Скачать торрент
Скачать торрент
[ Размер 33.5 КБ / Просмотров 13 ]

Поделиться


Re: Geekbrains | Профессия Разработчик .Net (2016) PCRec [H.264/720p-LQ]

Сообщение sulivlad » 03 июл 2018, 13:25

Есть много свежих курсов GeekBrains и не только. интересно пишем sulivlad@yandex.ru .
Аватара пользователя
sulivlad
 



  • Похожие торренты
    Ответы
    Просмотры
    Последнее сообщение

Вернуться в Разное (Компьютер)