Сообщение

Артём Исламов | Интенсив по заработку для фрилансеров (2017) PCRec [H.264/720p-LQ]

Сообщение Stepan » 19 янв 2018, 02:26

Артём Исламов | Интенсив по заработку для фрилансеров (2017) PCRec [H.264/720p-LQ]

Автор (режиссер): Артём Исламов
Жанр: Freelance, Заработок в интернете

Описание:
Разберись за 3 дня, как оформить свое портфолио и как начать работать с реальными заказами.

День 1. Портфолио
Как упаковать свое портфолио и рассказать о себе

День 2. Генерация заказов
Где найти заказчиков

День 3. Работа с клиентами
Учимся правильно общаться с заказчиками и делаем их постоянниками

Продолжительность: 07:35:59
Качество видео: PCRec

Видео: AVC/H.264, 1280x720, ~188 Kbps
Аудио: AAC, 2 ch, 126 Kbps
Код: Выделить всё
Общее
Полное имя                               : D:\[Исламов Артём] Интенсив по Freelance\День 1. Портфолио.mp4
Формат                                   : MPEG-4
Профиль формата                          : Base Media / Version 2
Идентификатор кодека                     : mp42 (isom/mp42)
Размер файла                             : 374 Мбайт
Продолжительность                        : 2 ч. 44 м.
Режим общего битрейта                    : Переменный
Общий поток                              : 317 Кбит/сек
Дата кодирования                         : UTC 2017-06-12 19:45:27
Дата пометки                             : UTC 2017-06-12 19:45:27
gsst                                     : 0
gstd                                     : 9888287

Видео
Идентификатор                            : 1
Формат                                   : AVC
Формат/Информация                        : Advanced Video Codec
Профиль формата                          :
Параметр CABAC формата                   : Да
Параметр RefFrames формата               : 3 кадра
Идентификатор кодека                     : avc1
Идентификатор кодека/Информация          : Advanced Video Coding
Продолжительность                        : 2 ч. 44 м.
Битрейт                                  : 188 Кбит/сек
Ширина                                   : 1280 пикселей
Высота                                   : 720 пикселей
Соотношение сторон                       : 16:9
Режим частоты кадров                     : Постоянный
Частота кадров                           : 30,000 кадров/сек
Цветовое пространство                    : YUV
Субдискретизация насыщенности            : 4:2:0
Битовая глубина                          : 8 бит
Тип развёртки                            : Прогрессивная
Бит/(Пиксели*Кадры)                      : 0.007
Размер потока                            : 222 Мбайт (59%)
Заголовок                                : ISO Media file produced by Google Inc.
Дата кодирования                         : UTC 2017-06-12 19:45:27
Дата пометки                             : UTC 2017-06-12 19:45:27
Цветовой диапазон                        : Limited
Основные цвета                           : BT.709
Характеристики трансфера                 : BT.709
Коэффициенты матрицы                     : BT.709

Аудио
Идентификатор                            : 2
Формат                                   : AAC
Формат/Информация                        : Advanced Audio Codec
Профиль формата                          : LC
Идентификатор кодека                     : 40
Продолжительность                        : 2 ч. 44 м.
Вид битрейта                             : Переменный
Битрейт                                  : 126 Кбит/сек
Каналы                                   : 2 канала
Расположение каналов                     : Front: L R
Частота                                  : 44,1 КГц
Частота кадров                           : 43,066 кадра/сек (1024 SPF)
Метод сжатия                             : С потерями
Размер потока                            : 148 Мбайт (40%)
Заголовок                                : ISO Media file produced by Google Inc.
Дата кодирования                         : UTC 2017-06-12 19:45:27
Дата пометки                             : UTC 2017-06-12 19:45:27

Скриншоты:



Время раздачи: 24/7 (круглосуточно) (до появления первых 3-5 скачавших)

Постеры

Соцсети

 

Статистика

Автор: Stepan
Добавлен: 19 янв 2018, 02:26
Размер: 1.1 ГБ
Размер: 1 179 368 146 байт
Сидеров: 6
Личеров: 0
Скачали: 0
Здоровье: 100%
Раздающих: 100%
Статус:
Скорость скачивания: 0 байт/сек
Скорость раздачи: 0 байт/сек
Последний сидер: 7 дней 12 часов 39 минут 34 секунды назад
Последний личер: 6 месяцев 24 дня 11 часов 34 минуты 39 секунд назад
Приватный: Нет (DHT включён)
Бизнес, экономика и финансы Скачать торрент
Скачать торрент
[ Размер 12.74 КБ / Просмотров 19 ]

Поделиться



  • Похожие торренты
    Ответы
    Просмотры
    Последнее сообщение

Вернуться в Бизнес, экономика и финансы