Сообщение

Convert Monster | Тренды интернет-маркетинга 2018 (2017) WEBRip [H.264]

Сообщение Stepan » 19 янв 2018, 02:32

Convert Monster | Тренды интернет-маркетинга 2018 (2017) WEBRip [H.264]

Автор (режиссер): Convert Monster
Жанр: Тренинг, конференция

Описание:
8 часов свежей, актуальной информации и практических алгоритмов по работе с маркетингом и рекламой.

Количество digital-конференций растет каждый год.

Чтобы быть в курсе последних трендов отрасли и пополнять профессиональную копилку эффективными инструментами, маркетолог-практик должен посещать не только имиджевые ивенты, но и прикладные мероприятия.

Конференция «Тренды интернет-маркетинга 2018» — это мероприятие, организованное практиками для практиков. Никаких бизнес-тренеров, коучей и «спикеров мирового уровня» — только свежая, актуальная информация и пошаговые практические алгоритмы по работе с маркетингом и рекламой.

Продолжительность: 08:15:32
Качество видео: WEBRip

Видео: AVC/H.264, 1366x768, ~1500 Kbps
Аудио: AAC, 2 ch, 128 Kbps
Код: Выделить всё
Общее
Полное имя                               : Z:\CM_Trands2018\Тренды Интернет-маркетинга часть 1.mp4
Формат                                   : MPEG-4
Профиль формата                          : Base Media
Идентификатор кодека                     : isom (isom/iso2/avc1/mp41)
Размер файла                             : 999 Мбайт
Продолжительность                        : 1 ч. 24 м.
Общий поток                              : 1660 Кбит/сек
Дата кодирования                         : UTC 2017-12-24 06:09:06
Дата пометки                             : UTC 2017-12-24 06:09:06
Программа кодирования                    : Lavf57.57.100
Авторское право                          : iSpringSolutions

Видео
Идентификатор                            : 1
Формат                                   : AVC
Формат/Информация                        : Advanced Video Codec
Профиль формата                          :
Настройки формата                        : CABAC / 2 Ref Frames
Параметр CABAC формата                   : Да
Параметр RefFrames формата               : 2 кадра
Идентификатор кодека                     : avc1
Идентификатор кодека/Информация          : Advanced Video Coding
Продолжительность                        : 1 ч. 24 м.
Битрейт                                  : 1500 Кбит/сек
Ширина                                   : 1366 пикселей
Высота                                   : 768 пикселей
Соотношение сторон                       : 16:9
Режим частоты кадров                     : Постоянный
Частота кадров                           : 24,000 кадра/сек
Цветовое пространство                    : YUV
Субдискретизация насыщенности            : 4:2:0
Битовая глубина                          : 8 бит
Тип развёртки                            : Прогрессивная
Бит/(Пиксели*Кадры)                      : 0.060
Размер потока                            : 919 Мбайт (92%)
Библиотека кодирования                   : x264 core 148 r2721
Настройки программы                      : cabac=1 / ref=2 / deblock=1:0:0 / analyse=0x1:0x131 / me=hex / subme=7 / psy=1 / psy_rd=1.00:0.00 / mixed_ref=0 / me_range=16 / chroma_me=1 / trellis=1 / 8x8dct=0 / cqm=0 / deadzone=21,11 / fast_pskip=1 / chroma_qp_offset=-2 / threads=6 / lookahead_threads=1 / sliced_threads=0 / nr=0 / decimate=1 / interlaced=0 / bluray_compat=0 / constrained_intra=0 / bframes=3 / b_pyramid=0 / b_adapt=1 / b_bias=0 / direct=0 / weightb=1 / open_gop=0 / weightp=2 / keyint=240 / keyint_min=24 / scenecut=40 / intra_refresh=0 / rc_lookahead=40 / rc=abr / mbtree=1 / bitrate=1500 / ratetol=1.0 / qcomp=0.60 / qpmin=10 / qpmax=69 / qpstep=4 / vbv_maxrate=2400 / vbv_bufsize=24000 / nal_hrd=none / filler=0 / ip_ratio=1.40 / aq=3:1.00
Дата кодирования                         : UTC 2017-12-24 06:09:06
Дата пометки                             : UTC 2017-12-24 06:09:06

Аудио
Идентификатор                            : 2
Формат                                   : AAC
Формат/Информация                        : Advanced Audio Codec
Профиль формата                          : LC
Идентификатор кодека                     : mp4a-40-2
Продолжительность                        : 1 ч. 24 м.
Duration_LastFrame                       : -21 мс.
Вид битрейта                             : Постоянный
Битрейт                                  : 128 Кбит/сек
Каналы                                   : 2 канала
Расположение каналов                     : Front: L R
Частота                                  : 48,0 КГц
Частота кадров                           : 46,875 кадров/сек (1024 SPF)
Метод сжатия                             : С потерями
Размер потока                            : 77,0 Мбайт (8%)
Default                                  : Да
AlternateGroup/String                    : 1
Дата кодирования                         : UTC 2017-12-24 06:09:06
Дата пометки                             : UTC 2017-12-24 06:09:06
Будут не просто выступления — планируется ковровая бомбардировка самыми сливками маркетинга:

*автоворонки
*чат-боты
*рассылки по Viber
*построение модели продаж по LTV клиента
*связь ретаргетинга с email маркетингом
*искусственный интеллект.

Цель конференции — чтобы по окончании этого дня в вашей голове произошел «щелчок», которые определит вектор развития вашей компании на 2018 год.

Скриншоты:



Время раздачи: 24/7 (круглосуточно) до первых 10 скачавших

Постеры

Соцсети

 

Статистика

Автор: Stepan
Добавлен: 19 янв 2018, 02:32
Размер: 5.7 ГБ
Размер: 6 117 619 277 байт
Сидеров: 8
Личеров: 0
Скачали: 1
Здоровье: 100%
Раздающих: 100%
Статус:
Скорость скачивания: 0 байт/сек
Скорость раздачи: 0 байт/сек
Последний сидер: 11 дней 7 часов 24 минуты 45 секунд назад
Последний личер: 8 месяцев 13 дней 2 часа 43 минуты 37 секунд назад
Приватный: Нет (DHT включён)
Бизнес, экономика и финансы Скачать торрент
Скачать торрент
[ Размер 29.48 КБ / Просмотров 24 ]

Поделиться



  • Похожие торренты
    Ответы
    Просмотры
    Последнее сообщение

Вернуться в Бизнес, экономика и финансы