[Pluralsight] .NET Puzzles, Gotchas & Cautionary Tales [2013, ENG]

Видео уроки, книги, учебники по языкам программирования
Торрент Сидеров Личеров Размер
torrent_4548520.torrent
0 0 466.53 МБ
Аватара пользователя
Stepan
Администратор
Сообщения: 52357
Зарегистрирован: 05 ноя 2011, 20:36

[Pluralsight] .NET Puzzles, Gotchas & Cautionary Tales [2013, ENG]

Сообщение Stepan » 25 янв 2018, 23:22

[Pluralsight] .NET Puzzles, Gotchas & Cautionary Tales [2013, ENG]
Год выпуска: 2013
Производитель: Pluralsight
Сайт производителя: http://pluralsight.com/
Автор: Kathleen Dollard
Продолжительность: 2h 23m
Тип раздаваемого материала: Видеоклипы
Язык: Английский
Описание: Puzzles, gotchas and cautionary tales to frighten and inspire you! Puzzles are “unit tests” that will remind you of things you’ve forgotten, teach you things you didn’t know and make you a more robust programmer.
Пазлы, подводные камни и назидательные истории, чтобы напугать и вдохновить вас! Головоломки - это "юнит-тесты", которые будут напоминать вам о вещах, что вы забыли, научат вас тому, что вы не знали, и сделают вас более сильным программистом.
=01-Introduction
==01-Introduction
=02-Intrinsic Types
==01-Introduction
==02-Floating Point Puzzle
==03-Floating Point Answer
==04-Division Puzzle
==05-Division Answer
==06-Divide by Zero Puzzle
==07-Divide by Zero Answer
==08-Bonus - Floating Point Types
==09-Rounding Puzzle
==10-Rounding Answer
==11-Bonus - Floating Point Equality
==12-Top of the Type Puzzle
==13-Top of the Type Answer
==14-Bonus - Floating Point Range
==15-Bonus - Floating Point Special Values
==16-Summary
=03-Methods and Overloads
==01-Introduction
==02-Date Arithmetic Puzzle
==03-Date Arithmetic Answer
==04-Overloads Puzzle
==05-Overloads Answer
==06-Generic Overloads Puzzle
==07-Generic Overloads Answer
==08-Base Class Overloads Puzzle
==09-Base Class Overloads Answer
==10-Bonus - HideBySig vs Override
==11-Named Parameter Overloads Puzzle
==12-Named Parameter Overloads Answer
==13-Bonus - Optional Parameters
==14-Summary
=04-Collections
==01-Introduction
==02-Alter List Puzzle
==03-Alter List Answer
==04-LINQ Evaluation Puzzle
==05-LINQ Evaluation Answer
==06-Multiple Column Sort Puzzle
==07-Multiple Column Sort Answer
==08-Set Puzzle
==09-Set Answer
==10-Bonus - Collection Performance
==11-Bonus - Choosing a Collection
==12-Bonus - Big O Notation
==13-Bonus - Contains, Any and Where Performance
==14-Bonus - Union Performance
==15-Summary
=05-Type Design
==01-Introduction
==02-Protected Internal Puzzle
==03-Protected Internal Answer
==04-Visibility of Privates Puzzle
==05-Visibility of Privates Answer
==06-Interface Implementation in Base Puzzle
==07-Interface Implementation in Base Answer
==08-Bonus - Explicit Interface Implementation
==09-Nested Type Puzzle
==10-Nested Type Answer
==11-Bonus - Reasons for Nested Classes
==12-Summary
Файлы примеров: отсутствуют
Формат видео: MP4
Видео: Формат : MPEG-4
Профиль формата : Base Media / Version 2
Идентификатор кодека : mp42
Размер файла : 13,4 Мбайт
Продолжительность : 4 м. 9 с.
Режим общего битрейта : Переменный
Общий поток : 450 Кбит/сек
Дата кодирования : UTC 2013-07-29 17:54:34
Дата пометки : UTC 2013-07-29 17:55:01
Программа кодирования : HandBrake 0.9.8 2012071700
Видео
Идентификатор : 1
Формат : AVC
Формат/Информация : Advanced Video Codec
Профиль формата : Baseline@L3.1
Параметр CABAC формата : Нет
Параметр ReFrames формата : 2 кадра
Параметр GOP формата : M=1, N=50
Идентификатор кодека : avc1
Идентификатор кодека/Информация : Advanced Video Coding
Продолжительность : 4 м. 9 с.
Вид битрейта : Переменный
Битрейт : 323 Кбит/сек
Ширина : 1024 пикселя
Высота : 768 пикселей
Соотношение сторон : 4:3
Режим частоты кадров : Переменный
Частота кадров : 15,000 кадров/сек
Минимальная частота кадров : 14,925 кадров/сек
Максимальная частота кадров : 15,152 кадров/сек
Цветовое пространство : YUV
Субдискретизация насыщенности : 4:2:0
Битовая глубина : 8 бит
Тип развёртки : Прогрессивная
Бит/(Пиксели*Кадры) : 0.027
Размер потока : 9,62 Мбайт (72%)
Библиотека кодирования : x264 core 120
Настройки программы : cabac=0 / ref=2 / deblock=1:0:0 / analyse=0x1:0x111 / me=umh / subme=6 / psy=1 / psy_rd=1.00:0.00 / mixed_ref=1 / me_range=16 / chroma_me=1 / trellis=0 / 8x8dct=0 / cqm=0 / deadzone=21,11 / fast_pskip=1 / chroma_qp_offset=-2 / threads=12 / sliced_threads=0 / nr=0 / decimate=1 / interlaced=0 / bluray_compat=0 / constrained_intra=0 / bframes=0 / weightp=0 / keyint=50 / keyint_min=15 / scenecut=40 / intra_refresh=0 / rc_lookahead=40 / rc=crf / mbtree=1 / crf=20.0 / qcomp=0.60 / qpmin=3 / qpmax=69 / qpstep=4 / ip_ratio=1.40 / aq=1:1.00
Дата кодирования : UTC 2013-07-29 17:54:34
Дата пометки : UTC 2013-07-29 17:55:01
Основные цвета : BT.709
Характеристики трансфера : BT.709
Коэффициенты матрицы : BT.709
Аудио: Идентификатор : 2
Формат : AAC
Формат/Информация : Advanced Audio Codec
Профиль формата : LC
Идентификатор кодека : 40
Продолжительность : 4 м. 9 с.
Вид битрейта : Переменный
Битрейт : 124 Кбит/сек
Максимальный битрейт : 144 Кбит/сек
Каналы : 2 канала
Расположение каналов : Front: L R
Частота : 44,1 КГц
Метод сжатия : С потерями
Размер потока : 3,68 Мбайт (27%)
Язык : English
Дата кодирования : UTC 2013-07-29 17:54:34
Дата пометки : UTC 2013-07-29 17:55:00

У вас нет необходимых прав для просмотра вложений в этом сообщении.