[Packt Publishing] Mastering JUnit 5 [Sept 2017, ENG]

Видео уроки, книги, учебники по языкам программирования
Торрент Сидеров Личеров Размер
torrent_5482411.torrent
0 0 328.1 МБ
Аватара пользователя
Stepan
Администратор
Сообщения: 52269
Зарегистрирован: 05 ноя 2011, 20:36

[Packt Publishing] Mastering JUnit 5 [Sept 2017, ENG]

Сообщение Stepan » 25 янв 2018, 23:24

Mastering JUnit 5
Год выпуска: Sept 2017
Производитель: Packt Publishing
Сайт производителя: http://www.packtpub.com/web-development ... it-5-video
Автор: Boni García
Продолжительность: 1 ч 58 м
Тип раздаваемого материала: Видеоурок
Язык: Английский
Описание: While building applications, it’s vital to have clean code, a productive environment, and efficient systems in place. Testing helps developers to achieve these goals. JUnit testing framework is a popular choice among Java developers and has recently released a major version update.
The latest version 5 has undergone massive changes and is a complete rewrite of the framework. This video course has exhaustive coverage on how to efficiently unit test Java applications with JUnit 5. The JUnit 5 team published its first General Availability Release on September 10, 2017. This is the best time to dive straight into the popular concepts and techniques used by experienced programmers to improve their code quality and keep the system clean. This video course will also cover various testing strategies, advanced test patterns, and JUnit extensions.
Interested in JUnit? Well, then update yourself with the latest features of JUnit 5, now that the official GA version is available. You wouldn’t want to miss this course.
1. JUnit 5: The Next Generation Testing Framework for the JVM
The Course Overview
JUnit 5: A Recall
Migration from JUnit 4 to JUnit 5
Parameterized Tests
Test Templates and Console Launcher
Java 9 and Beyond JUnit 5.0
2. Integration of JUnit 5 with External Frameworks
Mockito
Spring
Selenium
Cucumber
Docker
Android
REST
Файлы примеров: присутствуют
Формат видео: MPEG
Видео:
Видео
Идентификатор : 1
Формат : AVC
Формат/Информация : Advanced Video Codec
Профиль формата : Main@L4
Параметр CABAC формата : Да
Параметр RefFrames формата : 4 кадра
Идентификатор кодека : avc1
Идентификатор кодека/Информация : Advanced Video Coding
Продолжительность : 8 м. 1 с.
Битрейт : 192 Кбит/сек
Номинальный битрейт : 384 Кбит/сек
Ширина : 1920 пикселей
Высота : 1080 пикселей
Соотношение сторон : 16:9
Режим частоты кадров : Постоянный
Частота кадров : 25,000 кадров/сек
Цветовое пространство : YUV
Субдискретизация насыщенности : 4:2:0
Битовая глубина : 8 бит
Тип развёртки : Прогрессивная
Бит/(Пиксели*Кадры) : 0.004
Размер потока : 11,0 Мбайт (54%)
Библиотека кодирования : x264 core 120
Настройки программы : cabac=1 / ref=1 / deblock=1:0:0 / analyse=0x1:0x111 / me=hex / subme=9 / psy=1 / psy_rd=1.00:0.00 / mixed_ref=0 / me_range=16 / chroma_me=1 / trellis=0 / 8x8dct=0 / cqm=0 / deadzone=21,11 / fast_pskip=1 / chroma_qp_offset=-2 / threads=6 / sliced_threads=0 / nr=0 / decimate=1 / interlaced=0 / bluray_compat=0 / constrained_intra=0 / bframes=3 / b_pyramid=2 / b_adapt=2 / b_bias=0 / direct=3 / weightb=1 / open_gop=0 / weightp=1 / keyint=250 / keyint_min=25 / scenecut=40 / intra_refresh=0 / rc_lookahead=10 / rc=2pass / mbtree=1 / bitrate=384 / ratetol=1.0 / qcomp=0.60 / qpmin=3 / qpmax=69 / qpstep=4 / cplxblur=20.0 / qblur=0.5 / ip_ratio=1.40 / aq=1:1.00
Дата кодирования : UTC 2017-09-29 07:25:12
Дата пометки : UTC 2017-09-29 07:27:41
Цветовой диапазон : Limited
Основные цвета : BT.709
Характеристики трансфера : BT.709
Коэффициенты матрицы : BT.709
Аудио:
Аудио
Идентификатор : 2
Формат : AAC
Формат/Информация : Advanced Audio Codec
Профиль формата : LC
Идентификатор кодека : 40
Продолжительность : 8 м. 1 с.
Вид битрейта : Переменный
Битрейт : 160 Кбит/сек
Максимальный битрейт : 216 Кбит/сек
Каналы : 2 канала
Расположение каналов : Front: L R
Частота : 48,0 КГц
Частота кадров : 46,875 кадров/сек (1024 SPF)
Метод сжатия : С потерями
Размер потока : 9,18 Мбайт (45%)
Заголовок : Stereo
Язык : English
Дата кодирования : UTC 2017-09-29 07:25:12
Дата пометки : UTC 2017-09-29 07:27:41
У вас нет необходимых прав для просмотра вложений в этом сообщении.