Kundalini yoga with Ana Brett and Ravi Singh - All Ripped [2007, Йога, DVDRip]

Торрент Сидеров Личеров Размер
torrent_925371.torrent
0 0 5.83 ГБ
Аватара пользователя
Stepan
Администратор
Сообщения: 52269
Зарегистрирован: 05 ноя 2011, 20:36

Kundalini yoga with Ana Brett and Ravi Singh - All Ripped [2007, Йога, DVDRip]

Сообщение Stepan » 08 мар 2018, 18:08

Kundalini yoga with Ana Brett and Ravi Singh


Год выпуска: 2007
Страна: США
Жанр: Йога
Продолжительность: Около 12 часов
Язык: Английский

Описание:
Данная раздача содержит рип шести доступных на сегодняшний день фильмов по Кундалини йоге с Аней Бретт.
About Ravi and Ana
With 40 years combined teaching experience, internationally celebrated yoga Teachers, Ana Brett & Ravi Singh, remain fresh in their quest to keep innovating—with new methods, approaches, depth and insight. These modern masters are known for their ability in helping students make consistent and dramatic breakthroughs in their lives.
"Our primary objective", say Ana & Ravi, "is to help people learn to live a healthy and happy, more peaceful life that continues to challenge them to grow. We teach a system of exercise and meditation that fully integrates the body, mind, and spirit."
They have authored many DVD’s and books and trained over 300 practicing Kundalini Yoga Teachers. Their clients have included Olympic Athletes and celebrities such as Gwyneth Paltrow, Madonna, Sting, and The Red Hot Chile Peppers. They travel extensively teaching workshops, conferences and retreats worldwide. Their approach is powerful, poetic, meditative, moving, and fun. In a Ana & Ravi class or workshop you will: Get a full body workout. Learn the purpose of each exercise on every level: body, mind and spirit. Share in Ana & Ravi’s in-depth knowledge of physical anatomy and its metaphysical counterparts. Learn how to modify an exercise to minimize physical discomfort, maximize results. Be assured of Ana & Ravi’s personal concern for your well being. Receive modifications for each exercise so you can always participate. Experience a sonic healing to the transcendent sounds of live gong music. Participate in uplifting chants and group meditations. Сайт Анны www.raviana.com
[/hr]
Качество: DVDRip
Формат: MPEG
Видео кодек: Другой MPEG4
Аудио кодек: M4A (tracks)
Видео: (mp4v) 496x368, 30,0 fps
Аудио: FormatTag : "255" (AAC (Advanced Audio Coding))2 channels, 44100Hz
Обратите внимание, что со времен создания этой раздачи наша коллекция пополнилась еще одним фильмом Ани Бретт и Рави Сингха:
Фильмы можно скачивать все вместе, или по отдельности
Код:

Код: Выделить всё

General
Complete name                            : E:\Фитнес и аэробика\All ripped\AM-PM Yoga - Kun Title 1.mp4
Format                                   : MPEG-4
Format profile                           : Base Media / Version 2
Codec ID                                 : mp42
File size                                : 670 MiB
Duration                                 : 1h 26mn
Overall bit rate mode                    : Variable
Overall bit rate                         : 1 088 Kbps
Encoded date                             : UTC 2008-06-10 06:36:50
Tagged date                              : UTC 2008-06-10 07:05:29
Video
ID                                       : 1
Format                                   : MPEG-4 Visual
Format profile                           : Advanced Simple@L5
Format settings, BVOP                    : Yes
Format settings, QPel                    : No
Format settings, GMC                     : No warppoints
Format settings, Matrix                  : Default (H.263)
Codec ID                                 : 20
Duration                                 : 1h 26mn
Bit rate mode                            : Variable
Bit rate                                 : 1 001 Kbps
Maximum bit rate                         : 2 125 Kbps
Width                                    : 496 pixels
Height                                   : 368 pixels
Display aspect ratio                     : 4:3
Frame rate mode                          : Constant
Frame rate                               : 29.970 fps
Color space                              : YUV
Chroma subsampling                       : 4:2:0
Bit depth                                : 8 bits
Scan type                                : Progressive
Compression mode                         : Lossy
Bits/(Pixel*Frame)                       : 0.183
Stream size                              : 616 MiB (92%)
Writing library                          : em4v 4.1.6.5
Language                                 : English
Encoded date                             : UTC 2008-06-10 06:36:50
Tagged date                              : UTC 2008-06-10 07:05:29
Audio
ID                                       : 2
Format                                   : AAC
Format/Info                              : Advanced Audio Codec
Format profile                           : LC
Codec ID                                 : 40
Duration                                 : 1h 26mn
Bit rate mode                            : Variable
Bit rate                                 : 80.8 Kbps
Maximum bit rate                         : 127 Kbps
Channel(s)                               : 2 channels
Channel positions                        : Front: L R
Sampling rate                            : 44.1 KHz
Compression mode                         : Lossy
Stream size                              : 49.7 MiB (7%)
Language                                 : English
Encoded date                             : UTC 2008-06-10 06:36:50
Tagged date                              : UTC 2008-06-10 07:05:29
Menu
00:00:00.000                             : Chapter 1
00:01:05.200                             : Chapter 2
00:05:31.200                             : Chapter 3
00:07:53.400                             : Chapter 4
00:11:52.800                             : Chapter 5
00:23:00.200                             : Chapter 6
00:34:26.700                             : Chapter 7
00:36:45.600                             : Chapter 8
00:46:05.100                             : Chapter 9
00:50:23.500                             : Chapter 10
00:59:04.100                             : Chapter 11
01:11:38.200                             : Chapter 12
01:13:56.400                             : Chapter 13
01:24:13.700                             : Chapter 14
Код:

Код: Выделить всё

General
Complete name                            : E:\Фитнес и аэробика\All ripped\Beginners and Be Title 1.mp4
Format                                   : MPEG-4
Format profile                           : Base Media / Version 2
Codec ID                                 : mp42
File size                                : 507 MiB
Duration                                 : 1h 4mn
Overall bit rate mode                    : Variable
Overall bit rate                         : 1 090 Kbps
Encoded date                             : UTC 2008-06-10 07:05:30
Tagged date                              : UTC 2008-06-10 07:25:16
Video
ID                                       : 1
Format                                   : MPEG-4 Visual
Format profile                           : Advanced Simple@L5
Format settings, BVOP                    : Yes
Format settings, QPel                    : No
Format settings, GMC                     : No warppoints
Format settings, Matrix                  : Default (H.263)
Codec ID                                 : 20
Duration                                 : 1h 4mn
Bit rate mode                            : Variable
Bit rate                                 : 1 001 Kbps
Maximum bit rate                         : 1 928 Kbps
Width                                    : 496 pixels
Height                                   : 368 pixels
Display aspect ratio                     : 4:3
Frame rate mode                          : Constant
Frame rate                               : 29.970 fps
Color space                              : YUV
Chroma subsampling                       : 4:2:0
Bit depth                                : 8 bits
Scan type                                : Progressive
Compression mode                         : Lossy
Bits/(Pixel*Frame)                       : 0.183
Stream size                              : 465 MiB (92%)
Writing library                          : em4v 4.1.6.5
Language                                 : English
Encoded date                             : UTC 2008-06-10 07:05:30
Tagged date                              : UTC 2008-06-10 07:25:16
Audio
ID                                       : 2
Format                                   : AAC
Format/Info                              : Advanced Audio Codec
Format profile                           : LC
Codec ID                                 : 40
Duration                                 : 1h 4mn
Bit rate mode                            : Variable
Bit rate                                 : 80.9 Kbps
Maximum bit rate                         : 140 Kbps
Channel(s)                               : 2 channels
Channel positions                        : Front: L R
Sampling rate                            : 44.1 KHz
Compression mode                         : Lossy
Stream size                              : 37.6 MiB (7%)
Language                                 : English
Encoded date                             : UTC 2008-06-10 07:05:30
Tagged date                              : UTC 2008-06-10 07:25:16
Menu
00:00:00.000                             : Chapter 1
00:00:55.000                             : Chapter 2
00:05:19.800                             : Chapter 3
00:15:28.300                             : Chapter 4
00:18:21.500                             : Chapter 5
00:35:26.900                             : Chapter 6
00:54:05.900                             : Chapter 7
00:56:58.000                             : Chapter 8
01:02:34.600                             : Chapter 9
Код:

Код: Выделить всё

General
Complete name                            : E:\Фитнес и аэробика\All ripped\Dance the Chakra Title 1.mp4
Format                                   : MPEG-4
Format profile                           : Base Media / Version 2
Codec ID                                 : mp42
File size                                : 481 MiB
Duration                                 : 1h 1mn
Overall bit rate mode                    : Variable
Overall bit rate                         : 1 088 Kbps
Encoded date                             : UTC 2008-06-10 07:25:17
Tagged date                              : UTC 2008-06-10 07:45:58
Video
ID                                       : 1
Format                                   : MPEG-4 Visual
Format profile                           : Advanced Simple@L5
Format settings, BVOP                    : Yes
Format settings, QPel                    : No
Format settings, GMC                     : No warppoints
Format settings, Matrix                  : Default (H.263)
Codec ID                                 : 20
Duration                                 : 1h 1mn
Bit rate mode                            : Variable
Bit rate                                 : 1 000 Kbps
Maximum bit rate                         : 2 335 Kbps
Width                                    : 496 pixels
Height                                   : 368 pixels
Display aspect ratio                     : 4:3
Frame rate mode                          : Constant
Frame rate                               : 29.970 fps
Color space                              : YUV
Chroma subsampling                       : 4:2:0
Bit depth                                : 8 bits
Scan type                                : Progressive
Compression mode                         : Lossy
Bits/(Pixel*Frame)                       : 0.183
Stream size                              : 442 MiB (92%)
Writing library                          : em4v 4.1.6.5
Language                                 : English
Encoded date                             : UTC 2008-06-10 07:25:17
Tagged date                              : UTC 2008-06-10 07:45:58
Audio
ID                                       : 2
Format                                   : AAC
Format/Info                              : Advanced Audio Codec
Format profile                           : LC
Codec ID                                 : 40
Duration                                 : 1h 1mn
Bit rate mode                            : Variable
Bit rate                                 : 80.7 Kbps
Maximum bit rate                         : 153 Kbps
Channel(s)                               : 2 channels
Channel positions                        : Front: L R
Sampling rate                            : 44.1 KHz
Compression mode                         : Lossy
Stream size                              : 35.7 MiB (7%)
Language                                 : English
Encoded date                             : UTC 2008-06-10 07:25:17
Tagged date                              : UTC 2008-06-10 07:45:58
Menu
00:00:00.000                             : Chapter 1
00:00:55.700                             : Chapter 2
00:03:21.200                             : Chapter 3
00:12:57.600                             : Chapter 4
00:29:11.700                             : Chapter 5
00:33:48.500                             : Chapter 6
00:37:33.100                             : Chapter 7
00:40:12.400                             : Chapter 8
00:44:46.800                             : Chapter 9
00:47:29.500                             : Chapter 10
00:51:28.300                             : Chapter 11
00:54:34.400                             : Chapter 12
00:59:24.400                             : Chapter 13
Код:

Код: Выделить всё

General
Complete name                            : E:\Фитнес и аэробика\All ripped\Dance the Chakra Title 2.mp4
Format                                   : MPEG-4
Format profile                           : Base Media / Version 2
Codec ID                                 : mp42
File size                                : 256 MiB
Duration                                 : 32mn 51s
Overall bit rate mode                    : Variable
Overall bit rate                         : 1 088 Kbps
Encoded date                             : UTC 2008-06-10 07:45:59
Tagged date                              : UTC 2008-06-10 07:56:55
Video
ID                                       : 1
Format                                   : MPEG-4 Visual
Format profile                           : Advanced Simple@L5
Format settings, BVOP                    : Yes
Format settings, QPel                    : No
Format settings, GMC                     : No warppoints
Format settings, Matrix                  : Default (H.263)
Codec ID                                 : 20
Duration                                 : 32mn 51s
Bit rate mode                            : Variable
Bit rate                                 : 1 000 Kbps
Maximum bit rate                         : 2 177 Kbps
Width                                    : 496 pixels
Height                                   : 368 pixels
Display aspect ratio                     : 4:3
Frame rate mode                          : Constant
Frame rate                               : 29.970 fps
Color space                              : YUV
Chroma subsampling                       : 4:2:0
Bit depth                                : 8 bits
Scan type                                : Progressive
Compression mode                         : Lossy
Bits/(Pixel*Frame)                       : 0.183
Stream size                              : 235 MiB (92%)
Writing library                          : em4v 4.1.6.5
Language                                 : English
Encoded date                             : UTC 2008-06-10 07:45:59
Tagged date                              : UTC 2008-06-10 07:56:55
Audio
ID                                       : 2
Format                                   : AAC
Format/Info                              : Advanced Audio Codec
Format profile                           : LC
Codec ID                                 : 40
Duration                                 : 32mn 51s
Bit rate mode                            : Variable
Bit rate                                 : 80.7 Kbps
Maximum bit rate                         : 152 Kbps
Channel(s)                               : 2 channels
Channel positions                        : Front: L R
Sampling rate                            : 44.1 KHz
Compression mode                         : Lossy
Stream size                              : 19.0 MiB (7%)
Language                                 : English
Encoded date                             : UTC 2008-06-10 07:45:59
Tagged date                              : UTC 2008-06-10 07:56:55
Menu
00:00:00.000                             : Chapter 1
00:09:36.400                             : Chapter 2
00:14:13.200                             : Chapter 3
00:17:57.800                             : Chapter 4
00:22:32.200                             : Chapter 5
00:25:38.300                             : Chapter 6
00:30:28.300                             : Chapter 7
Код:

Код: Выделить всё

General
Complete name                            : E:\Фитнес и аэробика\All ripped\Dance the Chakra Title 3.mp4
Format                                   : MPEG-4
Format profile                           : Base Media / Version 2
Codec ID                                 : mp42
File size                                : 242 MiB
Duration                                 : 31mn 4s
Overall bit rate mode                    : Variable
Overall bit rate                         : 1 088 Kbps
Encoded date                             : UTC 2008-06-10 07:56:56
Tagged date                              : UTC 2008-06-10 08:04:10
Video
ID                                       : 1
Format                                   : MPEG-4 Visual
Format profile                           : Advanced Simple@L5
Format settings, BVOP                    : Yes
Format settings, QPel                    : No
Format settings, GMC                     : No warppoints
Format settings, Matrix                  : Default (H.263)
Codec ID                                 : 20
Duration                                 : 31mn 4s
Bit rate mode                            : Variable
Bit rate                                 : 1 000 Kbps
Maximum bit rate                         : 2 212 Kbps
Width                                    : 496 pixels
Height                                   : 368 pixels
Display aspect ratio                     : 4:3
Frame rate mode                          : Constant
Frame rate                               : 29.970 fps
Color space                              : YUV
Chroma subsampling                       : 4:2:0
Bit depth                                : 8 bits
Scan type                                : Progressive
Compression mode                         : Lossy
Bits/(Pixel*Frame)                       : 0.183
Stream size                              : 222 MiB (92%)
Writing library                          : em4v 4.1.6.5
Language                                 : English
Encoded date                             : UTC 2008-06-10 07:56:56
Tagged date                              : UTC 2008-06-10 08:04:10
Audio
ID                                       : 2
Format                                   : AAC
Format/Info                              : Advanced Audio Codec
Format profile                           : LC
Codec ID                                 : 40
Duration                                 : 31mn 4s
Bit rate mode                            : Variable
Bit rate                                 : 80.7 Kbps
Maximum bit rate                         : 113 Kbps
Channel(s)                               : 2 channels
Channel positions                        : Front: L R
Sampling rate                            : 44.1 KHz
Compression mode                         : Lossy
Stream size                              : 17.9 MiB (7%)
Language                                 : English
Encoded date                             : UTC 2008-06-10 07:56:56
Tagged date                              : UTC 2008-06-10 08:04:10
Menu
00:00:00.000                             : Chapter 1
00:16:14.100                             : Chapter 2
00:18:53.400                             : Chapter 3
00:21:36.100                             : Chapter 4
00:25:34.900                             : Chapter 5
00:28:41.000                             : Chapter 6
Код:

Код: Выделить всё

General
Complete name                            : E:\Фитнес и аэробика\All ripped\Dance the Chakra Title 4.mp4
Format                                   : MPEG-4
Format profile                           : Base Media / Version 2
Codec ID                                 : mp42
File size                                : 344 MiB
Duration                                 : 44mn 16s
Overall bit rate mode                    : Variable
Overall bit rate                         : 1 088 Kbps
Encoded date                             : UTC 2008-06-10 16:23:41
Tagged date                              : UTC 2008-06-10 16:34:45
Video
ID                                       : 1
Format                                   : MPEG-4 Visual
Format profile                           : Advanced Simple@L5
Format settings, BVOP                    : Yes
Format settings, QPel                    : No
Format settings, GMC                     : No warppoints
Format settings, Matrix                  : Default (H.263)
Codec ID                                 : 20
Duration                                 : 44mn 16s
Bit rate mode                            : Variable
Bit rate                                 : 999 Kbps
Maximum bit rate                         : 2 299 Kbps
Width                                    : 496 pixels
Height                                   : 368 pixels
Display aspect ratio                     : 4:3
Frame rate mode                          : Constant
Frame rate                               : 29.970 fps
Color space                              : YUV
Chroma subsampling                       : 4:2:0
Bit depth                                : 8 bits
Scan type                                : Progressive
Compression mode                         : Lossy
Bits/(Pixel*Frame)                       : 0.183
Stream size                              : 316 MiB (92%)
Writing library                          : em4v 4.1.6.5
Language                                 : English
Encoded date                             : UTC 2008-06-10 16:23:41
Tagged date                              : UTC 2008-06-10 16:34:45
Audio
ID                                       : 2
Format                                   : AAC
Format/Info                              : Advanced Audio Codec
Format profile                           : LC
Codec ID                                 : 40
Duration                                 : 44mn 16s
Bit rate mode                            : Variable
Bit rate                                 : 80.7 Kbps
Maximum bit rate                         : 112 Kbps
Channel(s)                               : 2 channels
Channel positions                        : Front: L R
Sampling rate                            : 44.1 KHz
Compression mode                         : Lossy
Stream size                              : 25.6 MiB (7%)
Language                                 : English
Encoded date                             : UTC 2008-06-10 16:23:41
Tagged date                              : UTC 2008-06-10 16:34:45
Menu
00:00:00.000                             : Chapter 1
00:09:36.400                             : Chapter 2
00:25:50.500                             : Chapter 3
00:30:27.300                             : Chapter 4
00:34:11.900                             : Chapter 5
00:38:46.300                             : Chapter 6
00:41:52.400                             : Chapter 7
Код:

Код: Выделить всё

General
Complete name                            : E:\Фитнес и аэробика\All ripped\Fat Free Yoga -  Title 1.mp4
Format                                   : MPEG-4
Format profile                           : Base Media / Version 2
Codec ID                                 : mp42
File size                                : 661 MiB
Duration                                 : 1h 24mn
Overall bit rate mode                    : Variable
Overall bit rate                         : 1 088 Kbps
Encoded date                             : UTC 2008-06-10 16:34:46
Tagged date                              : UTC 2008-06-10 16:54:35
Video
ID                                       : 1
Format                                   : MPEG-4 Visual
Format profile                           : Advanced Simple@L5
Format settings, BVOP                    : Yes
Format settings, QPel                    : No
Format settings, GMC                     : No warppoints
Format settings, Matrix                  : Default (H.263)
Codec ID                                 : 20
Duration                                 : 1h 24mn
Bit rate mode                            : Variable
Bit rate                                 : 1 000 Kbps
Maximum bit rate                         : 2 249 Kbps
Width                                    : 496 pixels
Height                                   : 368 pixels
Display aspect ratio                     : 4:3
Frame rate mode                          : Constant
Frame rate                               : 29.970 fps
Color space                              : YUV
Chroma subsampling                       : 4:2:0
Bit depth                                : 8 bits
Scan type                                : Progressive
Compression mode                         : Lossy
Bits/(Pixel*Frame)                       : 0.183
Stream size                              : 608 MiB (92%)
Writing library                          : em4v 4.1.6.5
Language                                 : English
Encoded date                             : UTC 2008-06-10 16:34:46
Tagged date                              : UTC 2008-06-10 16:54:35
Audio
ID                                       : 2
Format                                   : AAC
Format/Info                              : Advanced Audio Codec
Format profile                           : LC
Codec ID                                 : 40
Duration                                 : 1h 24mn
Bit rate mode                            : Variable
Bit rate                                 : 80.6 Kbps
Maximum bit rate                         : 112 Kbps
Channel(s)                               : 2 channels
Channel positions                        : Front: L R
Sampling rate                            : 44.1 KHz
Compression mode                         : Lossy
Stream size                              : 49.0 MiB (7%)
Language                                 : English
Encoded date                             : UTC 2008-06-10 16:34:46
Tagged date                              : UTC 2008-06-10 16:54:35
Menu
00:00:00.000                             : Chapter 1
00:08:14.700                             : Chapter 2
00:22:05.300                             : Chapter 3
00:43:36.900                             : Chapter 4
00:56:32.300                             : Chapter 5
01:04:49.300                             : Chapter 6
01:11:06.300                             : Chapter 7
01:14:42.800                             : Chapter 8
01:22:46.000                             : Chapter 9
Код:

Код: Выделить всё

General
Complete name                            : E:\Фитнес и аэробика\All ripped\Warrior Workout  Title 1.mp4
Format                                   : MPEG-4
Format profile                           : Base Media / Version 2
Codec ID                                 : mp42
File size                                : 591 MiB
Duration                                 : 1h 16mn
Overall bit rate mode                    : Variable
Overall bit rate                         : 1 086 Kbps
Encoded date                             : UTC 2008-06-10 16:54:35
Tagged date                              : UTC 2008-06-10 17:14:15
Video
ID                                       : 1
Format                                   : MPEG-4 Visual
Format profile                           : Advanced Simple@L5
Format settings, BVOP                    : Yes
Format settings, QPel                    : No
Format settings, GMC                     : No warppoints
Format settings, Matrix                  : Default (H.263)
Codec ID                                 : 20
Duration                                 : 1h 16mn
Bit rate mode                            : Variable
Bit rate                                 : 998 Kbps
Maximum bit rate                         : 2 392 Kbps
Width                                    : 480 pixels
Height                                   : 368 pixels
Display aspect ratio                     : 4:3
Frame rate mode                          : Constant
Frame rate                               : 29.970 fps
Color space                              : YUV
Chroma subsampling                       : 4:2:0
Bit depth                                : 8 bits
Scan type                                : Progressive
Compression mode                         : Lossy
Bits/(Pixel*Frame)                       : 0.188
Stream size                              : 543 MiB (92%)
Writing library                          : em4v 4.1.6.5
Language                                 : English
Encoded date                             : UTC 2008-06-10 16:54:35
Tagged date                              : UTC 2008-06-10 17:14:15
Audio
ID                                       : 2
Format                                   : AAC
Format/Info                              : Advanced Audio Codec
Format profile                           : LC
Codec ID                                 : 40
Duration                                 : 1h 16mn
Bit rate mode                            : Variable
Bit rate                                 : 80.8 Kbps
Maximum bit rate                         : 115 Kbps
Channel(s)                               : 2 channels
Channel positions                        : Front: L R
Sampling rate                            : 44.1 KHz
Compression mode                         : Lossy
Stream size                              : 43.9 MiB (7%)
Language                                 : English
Encoded date                             : UTC 2008-06-10 16:54:35
Tagged date                              : UTC 2008-06-10 17:14:15
Menu
00:00:00.000                             : Chapter 1
00:00:29.100                             : Chapter 2
00:03:16.400                             : Chapter 3
00:27:35.900                             : Chapter 4
00:50:32.500                             : Chapter 5
01:03:58.700                             : Chapter 6
01:07:13.700                             : Chapter 7
Код:

Код: Выделить всё

General
Complete name                            : E:\Фитнес и аэробика\All ripped\Yoga House Call  Title 1.mp4
Format                                   : MPEG-4
Format profile                           : Base Media / Version 2
Codec ID                                 : mp42
File size                                : 1.11 GiB
Duration                                 : 2h 26mn
Overall bit rate mode                    : Variable
Overall bit rate                         : 1 079 Kbps
Encoded date                             : UTC 2008-06-10 17:14:16
Tagged date                              : UTC 2008-06-10 17:51:54
Video
ID                                       : 1
Format                                   : MPEG-4 Visual
Format profile                           : Advanced Simple@L5
Format settings, BVOP                    : Yes
Format settings, QPel                    : No
Format settings, GMC                     : No warppoints
Format settings, Matrix                  : Default (H.263)
Codec ID                                 : 20
Duration                                 : 2h 26mn
Bit rate mode                            : Variable
Bit rate                                 : 992 Kbps
Maximum bit rate                         : 2 350 Kbps
Width                                    : 480 pixels
Height                                   : 368 pixels
Display aspect ratio                     : 4:3
Frame rate mode                          : Constant
Frame rate                               : 29.970 fps
Color space                              : YUV
Chroma subsampling                       : 4:2:0
Bit depth                                : 8 bits
Scan type                                : Progressive
Compression mode                         : Lossy
Bits/(Pixel*Frame)                       : 0.187
Stream size                              : 1.02 GiB (92%)
Writing library                          : em4v 4.1.6.5
Language                                 : English
Encoded date                             : UTC 2008-06-10 17:14:16
Tagged date                              : UTC 2008-06-10 17:51:54
Audio
ID                                       : 2
Format                                   : AAC
Format/Info                              : Advanced Audio Codec
Format profile                           : LC
Codec ID                                 : 40
Duration                                 : 2h 26mn
Bit rate mode                            : Variable
Bit rate                                 : 80.8 Kbps
Maximum bit rate                         : 147 Kbps
Channel(s)                               : 2 channels
Channel positions                        : Front: L R
Sampling rate                            : 44.1 KHz
Compression mode                         : Lossy
Stream size                              : 84.9 MiB (7%)
Language                                 : English
Encoded date                             : UTC 2008-06-10 17:14:16
Tagged date                              : UTC 2008-06-10 17:51:54
Menu
00:00:00.000                             : Chapter 1
00:00:00.500                             : Chapter 2
00:01:03.933                             : Chapter 3
00:03:21.100                             : Chapter 4
00:07:56.166                             : Chapter 5
00:22:01.500                             : Chapter 6
00:32:35.300                             : Chapter 7
00:43:28.000                             : Chapter 8
00:56:02.700                             : Chapter 9
01:04:51.633                             : Chapter 10
01:17:09.366                             : Chapter 11
01:21:12.400                             : Chapter 12
01:27:54.066                             : Chapter 13
01:40:13.500                             : Chapter 14
01:50:32.266                             : Chapter 15
01:56:29.100                             : Chapter 16
02:00:54.666                             : Chapter 17
02:07:09.966                             : Chapter 18
02:10:45.900                             : Chapter 19
02:24:24.133                             : Chapter 20
02:26:46.933                             : Chapter 21
Код:

Код: Выделить всё

General
Complete name                            : E:\Фитнес и аэробика\All ripped\Yoga House Call  Title 2.mp4
Format                                   : MPEG-4
Format profile                           : Base Media / Version 2
Codec ID                                 : mp42
File size                                : 1.06 GiB
Duration                                 : 2h 20mn
Overall bit rate mode                    : Variable
Overall bit rate                         : 1 080 Kbps
Encoded date                             : UTC 2008-06-10 17:51:54
Tagged date                              : UTC 2008-06-10 18:25:19
Video
ID                                       : 1
Format                                   : MPEG-4 Visual
Format profile                           : Advanced Simple@L5
Format settings, BVOP                    : Yes
Format settings, QPel                    : No
Format settings, GMC                     : No warppoints
Format settings, Matrix                  : Default (H.263)
Codec ID                                 : 20
Duration                                 : 2h 20mn
Bit rate mode                            : Variable
Bit rate                                 : 992 Kbps
Maximum bit rate                         : 2 350 Kbps
Width                                    : 480 pixels
Height                                   : 368 pixels
Display aspect ratio                     : 4:3
Frame rate mode                          : Constant
Frame rate                               : 29.970 fps
Color space                              : YUV
Chroma subsampling                       : 4:2:0
Bit depth                                : 8 bits
Scan type                                : Progressive
Compression mode                         : Lossy
Bits/(Pixel*Frame)                       : 0.187
Stream size                              : 994 MiB (92%)
Writing library                          : em4v 4.1.6.5
Language                                 : English
Encoded date                             : UTC 2008-06-10 17:51:54
Tagged date                              : UTC 2008-06-10 18:25:19
Audio
ID                                       : 2
Format                                   : AAC
Format/Info                              : Advanced Audio Codec
Format profile                           : LC
Codec ID                                 : 40
Duration                                 : 2h 20mn
Bit rate mode                            : Variable
Bit rate                                 : 80.8 Kbps
Maximum bit rate                         : 137 Kbps
Channel(s)                               : 2 channels
Channel positions                        : Front: L R
Sampling rate                            : 44.1 KHz
Compression mode                         : Lossy
Stream size                              : 80.9 MiB (7%)
Language                                 : English
Encoded date                             : UTC 2008-06-10 17:51:54
Tagged date                              : UTC 2008-06-10 18:25:19
Menu
00:00:00.000                             : Chapter 1
00:00:00.500                             : Chapter 2
00:01:03.933                             : Chapter 3
00:15:09.266                             : Chapter 4
00:25:43.066                             : Chapter 5
00:36:35.766                             : Chapter 6
00:49:10.466                             : Chapter 7
00:57:59.400                             : Chapter 8
01:10:17.133                             : Chapter 9
01:14:20.166                             : Chapter 10
01:21:01.833                             : Chapter 11
01:33:21.266                             : Chapter 12
01:43:40.033                             : Chapter 13
01:49:36.866                             : Chapter 14
01:54:02.433                             : Chapter 15
02:00:17.733                             : Chapter 16
02:03:53.666                             : Chapter 17
02:17:31.900                             : Chapter 18
02:19:54.700                             : Chapter 19
Спасибо за помощь по восстановлению оформления релиза!
У вас нет необходимых прав для просмотра вложений в этом сообщении.