ХI Международная Фитнес-Конвенция World Class 2005 (Step) [2005, фитнес конвенция, DVDRip, RUS] (Видеоурок)

Торрент Сидеров Личеров Размер
torrent_3588885.torrent
1 5 852.74 МБ
Аватара пользователя
Stepan
Администратор
Сообщения: 52388
Зарегистрирован: 05 ноя 2011, 20:36

ХI Международная Фитнес-Конвенция World Class 2005 (Step) [2005, фитнес конвенция, DVDRip, RUS] (Видеоурок)

Сообщение Stepan » 09 мар 2018, 12:48

ХI Международная Фитнес-Конвенция
~ World Class 2005 ~
Страна: РОССИЯ
Год выпуска: 2005
Язык: Русский
Перевод: Не требуется
Тематика: Фитнес - для инструкторов
Тип раздаваемого материала: Видеоурок
Продолжительность: указана отдельно
Описание:
15-17 апреля 2005 года в Москве в С/К «Олимпийский» состоялась ХI Международная Фитнес-Конвенция «Наш выбор – здоровый образ жизни», проходящая при поддержке Федерального Агентства по физической культуре и спорту и Комитета физической культуры и спорта города Москвы.
В данном релизе представлены пять уроков степа:
1. Белозерова Евгения - Философия степа -
Белозерова Евгения - инструктор групповых программ и тренажерного зала, персональный тренер клуба World Class "Lady`s".
2. Carmen Diaz - Super Step 1
Диаз Кармэн (Carmen Diaz) основатель Академии Аэробики и Фитнеса в Испании, автор многочисленных публикаций о фитнесе, неоднократный Презентер Года в Испании.
3. Афус Михаил - Watch Your Step -
Афус Михаил - Мастер спорта Международного Класса по спортивной аэробике, Мастер Спорта по акробатике, многократный чемпион России и серебрянный призер чемпионата Мира по спортивной аэробике, инструктор групповых программ, национальный тренер Les Mills.
4. Матюхина Валерия - Latin Step -
Матюхина Валерия - Супервайзер групповых программ World Class «Проспект Вернадского». Презентер российских и мждународных конвенций. Национальный тренер Les Mills, участница телевизионных фитнес-проектов.
5. Аверьянова Ирина, Кочуров Иван - G-Next -
Аверьянова Ирина - инструктор групповых программ сети World Class, национальный тренер Les Mills? Мастер Спорта по спортивной гимнастике. Кочуров Иван - инструктор сети клубов World Class? танцор международного класса по спортивным танцам, национальный тренер программ Les Mills.
Качество: DVDRip
Формат: AVI 1.0 (VFW 1.1)
Видео кодек: XviD build 50
Аудио кодек: MPEG Layer 3
Видео: XviD, 576 x 432, 4/3, 1 232 Kbps, 25.000 fps, 0.198 b/px
Аудио: MPEG-1 Audio layer 3, 128 Kbps, CBR, 44.1 KHz, 2 ch.
Спасибо за

Меню - скриншоты DVD
World Class 2005_01 - Белозерова Е. - Философия степа = 22:03

World Class 2005_02 - Carmen Diaz - Super Step 2 = 14:48

World Class 2005_03 - Афус М. - Watch Your Step = 14:06

World Class 2005_04 - Матюхина В. - Latin Step = 15:54

World Class 2005_05 - Аверьянова И., Кочуров И. - G-Next = 23:40
Код:

Код: Выделить всё

Complete name                    : World Class 2005 - 5 уроков степа\VIDEO_TS\VTS_02_1.VOB
Format                           : MPEG-PS
File size                        : 1 024 MiB
Duration                         : 21mn 21s
Overall bit rate                 : 6 701 Kbps
Video
ID                               : 224 (0xE0)
Format                           : MPEG Video
Format version                   : Version 2
Format profile                   : Main@Main
Format settings, BVOP            : Yes
Format settings, Matrix          : Default
Format settings, GOP             : M=2, N=6
Duration                         : 21mn 21s
Bit rate mode                    : Variable
Bit rate                         : 6 120 Kbps
Nominal bit rate                 : 9 200 Kbps
Width                            : 720 pixels
Height                           : 576 pixels
Display aspect ratio             : 4:3
Frame rate                       : 25.000 fps
Standard                         : PAL
Color space                      : YUV
Chroma subsampling               : 4:2:0
Bit depth                        : 8 bits
Scan type                        : Interlaced
Scan order                       : Top Field First
Bits/(Pixel*Frame)               : 0.590
Stream size                      : 935 MiB (91%)
Audio
ID                               : 128 (0x80)
Format                           : AC-3
Format/Info                      : Audio Coding 3
Mode extension                   : CM (complete main)
Duration                         : 21mn 21s
Bit rate mode                    : Constant
Bit rate                         : 448 Kbps
Channel(s)                       : 2 channels
Channel positions                : Front: L R
Sampling rate                    : 48.0 KHz
Bit depth                        : 16 bits
Stream size                      : 68.5 MiB (7%)
Menu
Раздача от группы
У вас нет необходимых прав для просмотра вложений в этом сообщении.